<?xml version="1.0" standalone="no"?>
<!DOCTYPE svg PUBLIC "-//W3C//DTD SVG 1.1//EN" "http://www.w3.org/Graphics/SVG/1.1/DTD/svg11.dtd" >
<svg xmlns="http://www.w3.org/2000/svg" xmlns:xlink="http://www.w3.org/1999/xlink" version="1.1">
<metadata>
Created by FontForge 20201107 at Fri Jun 21 07:53:07 2024
 By Unknown
Rajesh Rajput	
</metadata>
<defs>
<font id="MangoGrotesque-Medium" horiz-adv-x="296" >
  <font-face 
    font-family="Mango Grotesque Med"
    font-weight="500"
    font-stretch="normal"
    units-per-em="1000"
    panose-1="0 0 0 0 0 0 0 0 0 0"
    ascent="800"
    descent="-200"
    x-height="540"
    cap-height="700"
    bbox="-36 -210 806 917"
    underline-thickness="50"
    underline-position="-125"
    unicode-range="U+000D-FB02"
  />
<missing-glyph horiz-adv-x="534" 
d="M30 700h474v-700h-474v700zM292 350l162 -267v534zM242 350l-162 267v-534zM110 650l157 -259l157 259h-314zM267 309l-157 -259h314z" />
    <glyph glyph-name="fi" unicode="fi" horiz-adv-x="304" 
d="M5 540h30v106q0 35 6 55.5t21.5 31t42.5 14t68 3.5v-69q-19 0 -30 -1.5t-17 -6t-8 -13t-2 -23.5v-97h57v-69h-57v-471h-81v471h-30v69zM200 540h81v-540h-81v540zM200 680h81v-110h-81v110z" />
    <glyph glyph-name="fl" unicode="fl" horiz-adv-x="304" 
d="M5 540h30v106q0 35 6 55.5t21.5 31t42.5 14t68 3.5v-69q-19 0 -30 -1.5t-17 -6t-8 -13t-2 -23.5v-97h57v-69h-57v-471h-81v471h-30v69zM200 750h81v-750h-81v750z" />
    <glyph glyph-name=".notdef" horiz-adv-x="534" 
d="M30 700h474v-700h-474v700zM292 350l162 -267v534zM242 350l-162 267v-534zM110 650l157 -259l157 259h-314zM267 309l-157 -259h314z" />
    <glyph glyph-name=".null" horiz-adv-x="0" 
 />
    <glyph glyph-name="uni000D" unicode="&#xd;" horiz-adv-x="250" 
 />
    <glyph glyph-name="space" unicode=" " horiz-adv-x="150" 
 />
    <glyph glyph-name="exclam" unicode="!" horiz-adv-x="155" 
d="M120 701v-100l-11 -447h-62l-12 447v100h85zM30 98h95v-98h-95v98z" />
    <glyph glyph-name="quotedbl" unicode="&#x22;" horiz-adv-x="242" 
d="M212 698l-7 -192h-55l-8 192v52h70v-52zM100 698l-7 -192h-55l-8 192v52h70v-52z" />
    <glyph glyph-name="numbersign" unicode="#" horiz-adv-x="388" 
d="M114 701h70l-14 -239h62l14 239h70l-14 -239h56v-64h-60l-5 -95h65v-64h-69l-13 -239h-70l13 239h-62l-13 -239h-70l13 239h-57v64h61l5 95h-66v64h70zM166 398l-5 -95h62l5 95h-62z" />
    <glyph glyph-name="dollar" unicode="$" horiz-adv-x="299" 
d="M114 799h70l-4 -87q45 -8 69 -42t24 -97v-83h-85v94q0 35 -9.5 48.5t-28.5 13.5q-20 0 -29.5 -13.5t-9.5 -48.5v-56q0 -38 19.5 -70.5t46.5 -62.5q17 -19 34.5 -40t32 -45t23.5 -51.5t9 -60.5v-70q0 -63 -25.5 -97.5t-70.5 -42.5l4 -87h-70l4 87q-45 8 -70 42.5t-25 97.5
v103h85v-114q0 -35 11 -49t31 -14t30.5 14t10.5 49v76q0 42 -25.5 78t-55.5 71q-16 18 -31 37t-27 41t-19 47.5t-7 55.5v50q0 63 24 97t68 42z" />
    <glyph glyph-name="percent" unicode="%" horiz-adv-x="583" 
d="M482 271q0 33 -8.5 47.5t-28.5 14.5q-39 0 -39 -62v-153q0 -33 9 -48t29 -15t29 14.5t9 48.5v153zM177 584q0 33 -8.5 47.5t-28.5 14.5t-29.5 -14.5t-9.5 -47.5v-152q0 -33 9 -48t29 -15t29 14.5t9 48.5v152zM418 700h51l-300 -700h-51zM553 129q0 -72 -27.5 -108
t-80.5 -36q-54 0 -82 36t-28 108v131q0 71 28 106.5t82 35.5q53 0 80.5 -35.5t27.5 -106.5v-131zM248 443q0 -72 -27.5 -107.5t-80.5 -35.5q-54 0 -82 35.5t-28 107.5v130q0 72 28 107t82 35q53 0 80.5 -35t27.5 -107v-130z" />
    <glyph glyph-name="ampersand" unicode="&#x26;" horiz-adv-x="331" 
d="M188 505v62q0 61 -40 61t-40 -61v-118q0 -34 10 -49t32 -15h38v60h86v-60h35v-69h-35v-316h-57v65h-3q-18 -80 -83 -80q-52 0 -80 41t-28 117v72q0 64 14.5 96t45.5 38v3q-31 5 -45.5 37.5t-14.5 97.5v72q0 156 124 156q63 0 95 -39.5t32 -115.5v-55h-86zM108 252v-117
q0 -32 9.5 -46t29.5 -14q23 0 32 18t9 63v160h-38q-23 0 -32.5 -14.5t-9.5 -49.5z" />
    <glyph glyph-name="quotesingle" unicode="'" horiz-adv-x="130" 
d="M100 698l-7 -192h-55l-8 192v52h70v-52z" />
    <glyph glyph-name="parenleft" unicode="(" horiz-adv-x="205" 
d="M105 -178q-38 128 -56.5 243.5t-18.5 227.5t18.5 226.5t56.5 240.5l70 -13q-30 -126 -44.5 -236.5t-14.5 -217.5q0 -106 14.5 -217.5t44.5 -240.5z" />
    <glyph glyph-name="parenright" unicode=")" horiz-adv-x="205" 
d="M100.007 759.989q37.9971 -127.992 56.4961 -243.485t18.499 -227.486t-18.499 -226.486q-18.499 -114.492 -56.4961 -240.484l-69.9961 12.999q29.998 125.992 44.4971 236.485t14.499 217.486q0 105.994 -14.499 217.487t-44.4971 240.485z" />
    <glyph glyph-name="asterisk" unicode="*" horiz-adv-x="366" 
d="M149 546l-119 26l21 64l111 -49l-12 121h67l-12 -121l111 49l20 -64l-118 -25l81 -91l-55 -39l-61 105l-60 -105l-55 39z" />
    <glyph glyph-name="plus" unicode="+" horiz-adv-x="446" 
d="M417 304h-156v-158h-75v158h-155v70h155v158h75v-158h156v-70z" />
    <glyph glyph-name="comma" unicode="," horiz-adv-x="156" 
d="M126 -19q0 -91 -96 -91v44q44 0 44 49v17h-44v98h96v-117z" />
    <glyph glyph-name="hyphen" unicode="-" horiz-adv-x="300" 
d="M270 305h-240v69h240v-69z" />
    <glyph glyph-name="period" unicode="." horiz-adv-x="155" 
d="M30 98h95v-98h-95v98z" />
    <glyph glyph-name="slash" unicode="/" horiz-adv-x="243" 
d="M30 -80l103 810h80l-103 -810h-80z" />
    <glyph glyph-name="zero" unicode="0" 
d="M273 128q0 -72 -32 -107.5t-92 -35.5t-93 36t-33 107v445q0 71 33 106.5t93 35.5t92 -35t32 -107v-445zM188 584q0 33 -9.5 47.5t-30.5 14.5t-30.5 -14.5t-9.5 -47.5v-467q0 -63 40 -63q21 0 30.5 15t9.5 48v467z" />
    <glyph glyph-name="one" unicode="1" horiz-adv-x="225" 
d="M155 69h45v-69h-175v69h45v501h-35v64q30 0 41 14t11 52h68v-631z" />
    <glyph glyph-name="two" unicode="2" 
d="M26 556q0 82 32.5 120.5t89.5 38.5q59 0 92 -40t33 -128v-71q0 -31 -7 -56t-19 -46t-27 -39t-31 -35q-15 -16 -29.5 -32t-25.5 -35t-18 -41t-7 -49v-74h164v-69h-249v139q0 40 9 71t23 56t31.5 45.5t34.5 38.5q27 29 46.5 60.5t19.5 71.5v89q0 42 -9.5 58.5t-29.5 16.5
q-19 0 -28.5 -15t-9.5 -56v-125h-85v106z" />
    <glyph glyph-name="three" unicode="3" 
d="M273 465q0 -40 -10.5 -64.5t-37.5 -35.5v-4q27 -11 37.5 -34.5t10.5 -62.5v-136q0 -72 -32 -107.5t-92 -35.5t-93 36t-33 107v135h85v-146q0 -33 9.5 -47.5t30.5 -14.5t30.5 14.5t9.5 47.5v137q0 41 -10 57t-39 16h-18v69h18q28 0 38.5 16t10.5 57v116q0 62 -40 62
t-40 -62v-124h-85v113q0 71 33 106.5t93 35.5t92 -35.5t32 -106.5v-109z" />
    <glyph glyph-name="four" unicode="4" horiz-adv-x="320" 
d="M270 1h-85v109h-159v68l128 523h116v-522h25v-69h-25v-109zM185 179v214l14 174h-5l-8 -39l-78 -349h77z" />
    <glyph glyph-name="five" unicode="5" 
d="M263 631h-155v-236h2q8 40 29.5 60t53.5 20q38 0 59 -30t21 -102v-215q0 -72 -32 -107.5t-92 -35.5t-93 36t-33 107v97h85v-108q0 -63 40 -63q21 0 30.5 15t9.5 48v227q0 33 -9 47.5t-29 14.5t-31 -14.5t-11 -47.5v-28h-85v384h240v-69z" />
    <glyph glyph-name="six" unicode="6" 
d="M148 55q21 0 30.5 15t9.5 48v182q0 62 -40 62t-40 -62v-182q0 -33 9.5 -48t30.5 -15zM188 496v88q0 63 -39 63q-22 0 -31.5 -16.5t-9.5 -54.5v-220h2q8 36 27.5 55.5t50.5 19.5q85 0 85 -142v-160q0 -72 -32 -108t-92 -36t-93 36t-33 108v435q0 76 33 114t93 38
q59 0 91.5 -36t32.5 -107v-77h-85z" />
    <glyph glyph-name="seven" unicode="7" horiz-adv-x="278" 
d="M253 630q-23 -92 -38.5 -167.5t-27 -147.5t-20.5 -147.5t-19 -167.5h-85q10 92 19 167.5t20.5 147.5t27.5 147t40 167l-2 1h-143v70h228v-70z" />
    <glyph glyph-name="eight" unicode="8" 
d="M273 474q0 -76 -52 -107v-3q52 -31 52 -106v-130q0 -72 -32 -107.5t-92 -35.5t-93 36t-33 107v130q0 76 53 106v3q-53 30 -53 107v99q0 71 33 106.5t93 35.5t92 -35t32 -107v-99zM188 584q0 33 -9.5 47.5t-30.5 14.5t-30.5 -14.5t-9.5 -47.5v-121q0 -33 9.5 -48t30.5 -15
t30.5 15t9.5 48v121zM188 269q0 62 -40 62t-40 -62v-152q0 -63 40 -63q21 0 30.5 15t9.5 48v152z" />
    <glyph glyph-name="nine" unicode="9" 
d="M148 647q-21 0 -30.5 -15t-9.5 -48v-182q0 -33 9.5 -47.5t30.5 -14.5t30.5 14.5t9.5 47.5v182q0 63 -40 63zM108 205v-88q0 -63 40 -63q21 0 30.5 16.5t9.5 54.5v221h-2q-15 -75 -78 -75q-85 0 -85 142v160q0 72 32.5 107.5t92.5 35.5t92.5 -36t32.5 -107v-436
q0 -76 -32.5 -114t-92.5 -38t-92.5 36t-32.5 107v77h85z" />
    <glyph glyph-name="colon" unicode=":" horiz-adv-x="155" 
d="M30 98h95v-98h-95v98zM30 541h95v-98h-95v98z" />
    <glyph glyph-name="semicolon" unicode=";" horiz-adv-x="156" 
d="M30 541h95v-98h-95v98zM126 -19q0 -91 -96 -91v44q44 0 44 49v17h-44v98h96v-117z" />
    <glyph glyph-name="less" unicode="&#x3c;" horiz-adv-x="370" 
d="M30 373l310 148v-84l-238 -98v-3l238 -97v-84l-310 148v70z" />
    <glyph glyph-name="equal" unicode="=" horiz-adv-x="431" 
d="M401 392h-371v70h371v-70zM401 217h-371v70h371v-70z" />
    <glyph glyph-name="greater" unicode="&#x3e;" horiz-adv-x="370" 
d="M340.002 303.022l-309.981 -147.99v83.9941l237.985 97.9941v3l-237.985 96.9941v83.9951l309.981 -147.991v-69.9961z" />
    <glyph glyph-name="question" unicode="?" horiz-adv-x="308" 
d="M88 98h95v-98h-95v98zM30 556q0 82 33 121t92 39q57 0 90 -38.5t33 -120.5v-68q0 -58 -15.5 -96.5t-35.5 -71.5q-18 -30 -33.5 -64.5t-15.5 -85.5v-17h-85v14q0 36 5.5 65t14 52.5t19.5 42.5t21 36q16 26 28 56.5t12 68.5v83q0 42 -10 58.5t-30 16.5q-19 0 -28.5 -15.5
t-9.5 -55.5v-125h-85v105z" />
    <glyph glyph-name="at" unicode="@" horiz-adv-x="536" 
d="M306 381q-2 36 -14 53t-29 17q-16 0 -24.5 -13.5t-8.5 -43.5v-258q0 -59 33 -59q18 0 30 17.5t13 54.5v232zM381 84q0 -16 7 -25.5t18 -9.5t18 11t7 29v353q0 78 -42 121t-120 43q-79 0 -121.5 -43.5t-42.5 -121.5v-316q0 -109 34 -160t115 -51v-64q-113 0 -168.5 70
t-55.5 208v319q0 49 18 90t49.5 70.5t75.5 46t95 16.5q52 0 95.5 -17t75 -47t49.5 -71.5t18 -90.5v-337q0 -52 -29 -84.5t-76 -32.5q-41 0 -68.5 24t-27.5 61v3h-3q-8 -44 -27.5 -67t-47.5 -23q-35 0 -53.5 37t-18.5 112v277q0 54 19.5 83.5t51.5 29.5q27 0 47 -20t28 -58h3
v71h77v-436z" />
    <glyph glyph-name="A" unicode="A" horiz-adv-x="280" 
d="M146 505l-4 71h-4l-4 -71l-20 -265h52zM270 0h-85l-13 171h-64l-13 -171h-85l76 700h109z" />
    <glyph glyph-name="B" unicode="B" horiz-adv-x="288" 
d="M270 489q0 -54 -16 -84.5t-51 -41.5v-3q72 -24 72 -127v-90q0 -73 -35.5 -108t-98.5 -35h-116v700h113q62 0 97 -34.5t35 -107.5v-69zM185 569q0 33 -11 47.5t-36 14.5h-28v-236h25q29 0 39.5 15.5t10.5 57.5v101zM190 254q0 38 -13 55t-42 17h-25v-257h30q26 0 38 15
t12 48v122z" />
    <glyph glyph-name="C" unicode="C" 
d="M188 584q0 62 -40 62t-40 -62v-467q0 -63 40 -63q21 0 30.5 15t9.5 48v144h85v-133q0 -73 -33 -108t-91 -35t-92 35t-34 108v445q0 73 33.5 107.5t91.5 34.5q59 0 92 -34.5t33 -107.5v-123h-85v134z" />
    <glyph glyph-name="D" unicode="D" horiz-adv-x="298" 
d="M275 143q0 -73 -35.5 -108t-98.5 -35h-116v700h115q63 0 99 -34.5t36 -107.5v-415zM190 569q0 33 -12 47.5t-38 14.5h-30v-562h30q26 0 38 15t12 48v437z" />
    <glyph glyph-name="E" unicode="E" horiz-adv-x="222" 
d="M201 631h-91v-236h85v-69h-85v-257h100v-69h-185v700h176v-69z" />
    <glyph glyph-name="F" unicode="F" horiz-adv-x="213" 
d="M201 631h-91v-262h80v-69h-80v-299h-85v699h176v-69z" />
    <glyph glyph-name="G" unicode="G" 
d="M188 584q0 33 -9.5 47.5t-30.5 14.5t-30.5 -14.5t-9.5 -47.5v-467q0 -63 38 -63q45 0 45 73v164h-52v69h135v-360h-77l-4 61h-3q-5 -33 -26.5 -54.5t-56.5 -21.5q-84 0 -84 143v445q0 73 33.5 107.5t91.5 34.5q59 0 92.5 -34.5t33.5 -107.5v-123h-86v134z" />
    <glyph glyph-name="H" unicode="H" horiz-adv-x="295" 
d="M270 0h-85v323h-75v-323h-85v700h85v-303h75v303h85v-700z" />
    <glyph glyph-name="I" unicode="I" horiz-adv-x="155" 
d="M120 0h-85v700h85v-700z" />
    <glyph glyph-name="J" unicode="J" horiz-adv-x="288" 
d="M265 128q0 -73 -33.5 -108t-90.5 -35q-59 0 -92.5 35t-33.5 108v103h85v-114q0 -33 10 -48t30 -15q40 0 40 63v583h85v-572z" />
    <glyph glyph-name="K" unicode="K" horiz-adv-x="298" 
d="M194 414v-2l91 -412h-85l-68 331h-3l-19 -56v-275h-85v700h85v-202l-8 -124h3l87 326h86z" />
    <glyph glyph-name="L" unicode="L" horiz-adv-x="215" 
d="M110 700v-631h90v-69h-175v700h85z" />
    <glyph glyph-name="M" unicode="M" horiz-adv-x="394" 
d="M369 0h-80l16 500l3 72h-4l-65 -572h-79l-70 572h-4l4 -72l15 -500h-80v700h122l46 -510l5 -66h4l3 66l42 510h122v-700z" />
    <glyph glyph-name="N" unicode="N" horiz-adv-x="315" 
d="M290 0h-103l-97 558l-4 -1l5 -72l19 -485h-85v700h103l84 -473l12 -72l4 1l-5 72l-18 472h85v-700z" />
    <glyph glyph-name="O" unicode="O" 
d="M273 128q0 -72 -32 -107.5t-92 -35.5t-93 36t-33 107v445q0 71 33 106.5t93 35.5t92 -35t32 -107v-445zM188 584q0 33 -9.5 47.5t-30.5 14.5t-30.5 -14.5t-9.5 -47.5v-467q0 -63 40 -63q21 0 30.5 15t9.5 48v467z" />
    <glyph glyph-name="P" unicode="P" horiz-adv-x="298" 
d="M275 404q0 -73 -35.5 -110.5t-98.5 -37.5h-31v-256h-85v700h115q63 0 99 -37t36 -110v-149zM190 569q0 33 -12 47.5t-38 14.5h-30v-306h30q26 0 38 15t12 48v181z" />
    <glyph glyph-name="Q" unicode="Q" 
d="M273 134q0 -71 -30.5 -108t-84.5 -40q8 -28 31 -37t49 -9l2 -2v-59l-2 -3q-21 0 -39 4t-31 16t-20.5 33.5t-8.5 56.5q-54 3 -85 40.5t-31 107.5v435q0 73 33.5 110t91.5 37q59 0 92 -37t33 -110v-435zM188 585q0 62 -40 62t-40 -62v-467q0 -33 9.5 -48t30.5 -15t30.5 15
t9.5 48v467z" />
    <glyph glyph-name="R" unicode="R" 
d="M140 700q63 0 99 -37t36 -110v-104q0 -93 -67 -116v-3q67 -23 67 -117v-112q0 -31 1.5 -50.5t6.5 -46.5v-4h-85q-2 14 -3.5 26t-2.5 23.5t-1.5 24t-0.5 27.5v133q0 33 -12 47.5t-38 14.5h-30v-296h-85v700h115zM110 365h30q26 0 38 15t12 48v141q0 33 -12 47.5t-38 14.5
h-30v-266z" />
    <glyph glyph-name="S" unicode="S" horiz-adv-x="299" 
d="M188 490v94q0 35 -9.5 48.5t-28.5 13.5q-20 0 -29.5 -13.5t-9.5 -48.5v-56q0 -38 19.5 -70.5t46.5 -62.5q17 -19 34.5 -40t32 -45t23.5 -51.5t9 -60.5v-70q0 -73 -34 -108t-93 -35t-92.5 34.5t-33.5 108.5v103h85v-114q0 -35 11 -49t31 -14t30.5 14t10.5 49v76
q0 42 -25.5 78t-55.5 71q-16 18 -31 37t-27 41t-19 47.5t-7 55.5v50q0 74 33 108t91 34t90.5 -34.5t32.5 -107.5v-83h-85z" />
    <glyph glyph-name="T" unicode="T" horiz-adv-x="275" 
d="M260 631h-80v-631h-85v631h-80v69h245v-69z" />
    <glyph glyph-name="U" unicode="U" horiz-adv-x="306" 
d="M283 128q0 -73 -34.5 -108t-94.5 -35q-61 0 -96 35t-35 108v572h85v-583q0 -63 45 -63q23 0 34 15t11 48v583h85v-572z" />
    <glyph glyph-name="V" unicode="V" horiz-adv-x="280" 
d="M86 0l-76 700h85l39 -504l4 -72h4l4 72l39 504h85l-75 -700h-109z" />
    <glyph glyph-name="W" unicode="W" horiz-adv-x="452" 
d="M376 0h-110l-34 497l-4 72h-4l-3 -72l-35 -497h-110l-66 700h85l32 -519l2 -72h4l3 72l39 519h102l40 -519l4 -72h4l2 72l30 519h85z" />
    <glyph glyph-name="X" unicode="X" horiz-adv-x="281" 
d="M204 357v-3l67 -354h-86l-38 225l-6 91h-4l-6 -91l-35 -225h-86l63 356v3l-63 341h86l34 -213l7 -91h4l7 91l37 213h86z" />
    <glyph glyph-name="Y" unicode="Y" horiz-adv-x="280" 
d="M183 235v-235h-85v235l-87 465h85l35 -300l8 -78h4l8 78l35 300h85z" />
    <glyph glyph-name="Z" unicode="Z" horiz-adv-x="246" 
d="M226 631l-128 -559l2 -3h133v-69h-220v69l127 559l-2 3h-118v69h206v-69z" />
    <glyph glyph-name="bracketleft" unicode="[" horiz-adv-x="225" 
d="M30 -190v945h165v-69h-80v-807h80v-69h-165z" />
    <glyph glyph-name="backslash" unicode="\" horiz-adv-x="243" 
d="M30 730h80l103 -810h-80z" />
    <glyph glyph-name="bracketright" unicode="]" horiz-adv-x="225" 
d="M195.002 754.988v-944.942h-164.99v68.9961h79.9951v806.95h-79.9951v68.9961h164.99z" />
    <glyph glyph-name="asciicircum" unicode="^" horiz-adv-x="272" 
d="M153 581l-15 90h-4l-15 -90l-15 -81h-74l67 200h78l67 -200h-74z" />
    <glyph glyph-name="underscore" unicode="_" horiz-adv-x="290" 
d="M260 -69h-230v69h230v-69z" />
    <glyph glyph-name="grave" unicode="`" horiz-adv-x="159" 
d="M30 700h65l34 -137h-54z" />
    <glyph glyph-name="a" unicode="a" horiz-adv-x="281" 
d="M195 0l-7 80h-3q-11 -41 -34 -68t-55 -27q-35 0 -55 36t-20 107v67q0 142 79 142q29 0 48.5 -18.5t28.5 -50.5h3v156q0 33 -9 47.5t-29 14.5t-29 -14.5t-9 -47.5v-52h-81v41q0 72 30.5 107t88.5 35q57 0 88 -35t31 -107v-413h-66zM133 54q21 0 34 26t13 77v49
q0 29 -12 45.5t-32 16.5q-17 0 -25.5 -14.5t-8.5 -47.5v-89q0 -33 7.5 -48t23.5 -15z" />
    <glyph glyph-name="b" unicode="b" horiz-adv-x="281" 
d="M261 128q0 -71 -21 -107t-59 -36q-27 0 -48 19t-32 54h-3l-9 -58h-66v750h81v-267h3q20 72 76 72q38 0 58 -35.5t20 -106.5v-285zM147 54q17 0 25 15t8 48v307q0 33 -8 47.5t-25 14.5q-19 0 -31 -18.5t-12 -58.5v-277q0 -40 12 -59t31 -19z" />
    <glyph glyph-name="c" unicode="c" horiz-adv-x="277" 
d="M177 424q0 34 -8.5 48.5t-28.5 14.5t-29.5 -15t-9.5 -48v-307q0 -33 9 -48t29 -15t29 15t9 48v97h81v-86q0 -72 -30.5 -107.5t-87.5 -35.5q-58 0 -89 35.5t-31 107.5v285q0 72 31 107.5t89 35.5q57 0 87.5 -35.5t30.5 -107.5v-76h-81v87z" />
    <glyph glyph-name="d" unicode="d" horiz-adv-x="281" 
d="M20 413q0 142 79 142q55 0 75 -72h3v267h81v-750h-66l-8 58h-3q-23 -73 -81 -73q-38 0 -59 36t-21 107v285zM135 54q19 0 30.5 19t11.5 59v277q0 40 -12 58.5t-31 18.5q-17 0 -25 -14.5t-8 -47.5v-307q0 -33 8.5 -48t25.5 -15z" />
    <glyph glyph-name="e" unicode="e" horiz-adv-x="278" 
d="M139 54q20 0 29 15t9 48v87h81v-76q0 -72 -30.5 -107.5t-87.5 -35.5q-58 0 -89 35.5t-31 107.5v285q0 72 31 107t89 35q57 0 87.5 -35t30.5 -107v-158h-157v-138q0 -33 9 -48t29 -15zM177 424q0 33 -8.5 47.5t-28.5 14.5t-29.5 -14.5t-9.5 -47.5v-110h76v110z" />
    <glyph glyph-name="f" unicode="f" horiz-adv-x="177" 
d="M5 540h30v106q0 35 6 55.5t21.5 31t42.5 14t68 3.5v-69q-19 0 -30 -1.5t-17 -6t-8 -13t-2 -23.5v-97h57v-69h-57v-471h-81v471h-30v69z" />
    <glyph glyph-name="g" unicode="g" horiz-adv-x="276" 
d="M176 424q0 33 -8.5 47.5t-28.5 14.5t-29.5 -14.5t-9.5 -47.5v-237q0 -33 9 -48t29 -15t29 14.5t9 48.5v237zM124 -47q-36 0 -36 -28t36 -28h32q36 0 36 27q0 29 -36 29h-32zM257 198q0 -143 -118 -143h-28q-26 0 -26 -22q0 -21 25 -21h57q41 0 65.5 -21.5t24.5 -62.5
q0 -45 -30 -67.5t-87 -22.5h-11q-52 0 -81 17.5t-29 47.5q0 41 70 48v3q-32 2 -49 15.5t-17 37.5q0 23 15.5 38.5t42.5 19.5l1 3q-63 28 -63 130v215q0 65 25 100.5t73 40.5q20 3 27.5 10t7.5 21v40h70v-25q0 -19 -10 -31t-45 -14v-3q90 -15 90 -139v-215z" />
    <glyph glyph-name="h" unicode="h" horiz-adv-x="284" 
d="M180 0v423q0 33 -8 48t-25 15q-19 0 -31 -19t-12 -59v-408h-81v750h81v-257h3q23 62 74 62q38 0 59 -36t21 -107v-412h-81z" />
    <glyph glyph-name="i" unicode="i" horiz-adv-x="127" 
d="M23 540h81v-540h-81v540zM23 680h81v-110h-81v110z" />
    <glyph glyph-name="j" unicode="j" horiz-adv-x="128" 
d="M105 -60q0 -35 -4.5 -55.5t-18 -31t-38.5 -14t-65 -3.5v69q16 0 25.5 1t13.5 5.5t5 13.5t1 24v591h81v-600zM105 570h-81v110h81v-110z" />
    <glyph glyph-name="k" unicode="k" horiz-adv-x="289" 
d="M188 319v-2l91 -317h-85l-68 255h-3l-19 -43v-212h-81v750h81v-366l-8 -95h3l87 251h86z" />
    <glyph glyph-name="l" unicode="l" horiz-adv-x="127" 
d="M23 750h81v-750h-81v750z" />
    <glyph glyph-name="m" unicode="m" horiz-adv-x="431" 
d="M175 0v423q0 33 -7.5 48t-23.5 15q-17 0 -28.5 -19t-11.5 -59v-408h-81v540h66l9 -57h3q11 35 31 53.5t46 18.5q27 0 45 -19t25 -58h3q11 38 31.5 57.5t47.5 19.5q37 0 57.5 -36t20.5 -107v-412h-81v423q0 33 -7.5 48t-23.5 15q-17 0 -28.5 -19t-11.5 -59v-408h-81z" />
    <glyph glyph-name="n" unicode="n" horiz-adv-x="284" 
d="M180 0v423q0 33 -8 48t-25 15q-19 0 -31 -19t-12 -59v-408h-81v540h66l9 -58h3q11 35 32 54t48 19q38 0 59 -36t21 -107v-412h-81z" />
    <glyph glyph-name="o" unicode="o" horiz-adv-x="278" 
d="M258 128q0 -72 -30.5 -107.5t-87.5 -35.5q-58 0 -89 35.5t-31 107.5v285q0 72 31 107t89 35q57 0 87.5 -35t30.5 -107v-285zM177 424q0 33 -8.5 47.5t-28.5 14.5t-29.5 -14.5t-9.5 -47.5v-307q0 -33 9 -48t29 -15t29 15t9 48v307z" />
    <glyph glyph-name="p" unicode="p" horiz-adv-x="281" 
d="M261 127q0 -70 -20 -106t-58 -36q-56 0 -76 72h-3v-267h-81v750h66l9 -58h3q11 35 32 54t48 19q38 0 59 -36t21 -107v-285zM147 54q33 0 33 62v307q0 33 -8 48t-25 15q-19 0 -31 -19t-12 -59v-277q0 -39 12 -58t31 -19z" />
    <glyph glyph-name="q" unicode="q" horiz-adv-x="281" 
d="M20 412q0 71 21 107t59 36q58 0 81 -73h3l8 58h66v-750h-81v267h-3q-20 -72 -75 -72q-79 0 -79 142v285zM134 54q19 0 31 19t12 58v277q0 40 -11.5 59t-30.5 19q-17 0 -25.5 -15t-8.5 -48v-307q0 -62 33 -62z" />
    <glyph glyph-name="r" unicode="r" horiz-adv-x="208" 
d="M94 540l5 -88h2q1 32 9.5 50t22 26.5t30.5 10t35 1.5v-84q-55 0 -74.5 -23.5t-19.5 -66.5v-366h-81v540h71z" />
    <glyph glyph-name="s" unicode="s" horiz-adv-x="278" 
d="M175 381v70q0 27 -10.5 37.5t-24.5 10.5q-16 0 -26 -10.5t-10 -38.5v-43q0 -28 20 -53.5t45 -48.5q16 -15 32 -31.5t29 -35t21 -40.5t8 -48v-44q0 -57 -33 -89t-87 -32t-86.5 32.5t-32.5 89.5v73h81v-90q0 -28 10.5 -38.5t27.5 -10.5t28 10.5t11 38.5v60q0 15 -7 29.5
t-18 29t-25.5 29t-28.5 27.5q-30 28 -53 62t-23 79v28q0 57 31.5 89t84.5 32q54 0 85.5 -32t31.5 -89v-53h-81z" />
    <glyph glyph-name="t" unicode="t" horiz-adv-x="172" 
d="M116 620v-80h52v-69h-52v-358q0 -15 2 -24t8 -13.5t16 -5.5t26 -1v-69q-39 0 -65 3.5t-41 14.5t-21 31.5t-6 55.5v366h-30v69h30v80h81z" />
    <glyph glyph-name="u" unicode="u" horiz-adv-x="284" 
d="M104 540v-423q0 -33 8.5 -48t25.5 -15q19 0 30.5 19t11.5 59v408h81v-540h-66l-8 58h-3q-23 -73 -81 -73q-38 0 -59 36t-21 107v412h81z" />
    <glyph glyph-name="v" unicode="v" horiz-adv-x="271" 
d="M86 0l-78 540h85l37 -352l4 -64h4l4 64l36 352h85l-78 -540h-99z" />
    <glyph glyph-name="w" unicode="w" horiz-adv-x="438" 
d="M366 0h-110l-31 426l-4 68h-4l-4 -68l-32 -426h-110l-63 540h85l29 -369l2 -62h4l4 62l36 369h102l38 -369l3 -62h4l2 62l28 369h85z" />
    <glyph glyph-name="x" unicode="x" horiz-adv-x="269" 
d="M194 275v-2l67 -273h-82l-38 174l-6 70h-4l-6 -70l-35 -174h-82l63 275v2l-63 263h82l34 -165l7 -69h4l7 69l37 165h82z" />
    <glyph glyph-name="y" unicode="y" horiz-adv-x="271" 
d="M180 -40q-5 -35 -12 -59t-24 -38t-46.5 -20t-79.5 -6v69q24 0 38 3t20.5 12.5t8.5 27t2 46.5l-79 545h85l37 -358l4 -63h4l4 63l36 358h85z" />
    <glyph glyph-name="z" unicode="z" horiz-adv-x="236" 
d="M216 487l-117 -415l2 -3h122v-69h-210v54l116 415l-2 2h-106v69h195v-53z" />
    <glyph glyph-name="braceleft" unicode="{" horiz-adv-x="300" 
d="M185 411q0 -61 -15 -94t-59 -33v-3q44 0 59 -32.5t15 -93.5v-180q0 -29 2.5 -47.5t9.5 -29t19 -15t30 -4.5h24v-69h-51q-60 0 -89.5 38t-29.5 120v201q0 21 -2 36t-9 24.5t-21 14t-38 4.5v69q24 0 38 4.5t21 14t9 25t2 36.5v200q0 82 29.5 120t89.5 38h51v-69h-24
q-18 0 -30 -4.5t-19 -15t-9.5 -29t-2.5 -47.5v-179z" />
    <glyph glyph-name="bar" unicode="|" horiz-adv-x="145" 
d="M30 -185v935h85v-935h-85z" />
    <glyph glyph-name="braceright" unicode="}" horiz-adv-x="300" 
d="M115.012 154.025q0 60.9961 14.999 93.9941t58.9961 32.998v3q-43.9971 0 -58.9961 32.498t-14.999 93.4941v179.988q0 28.999 -2.5 47.4971q-2.5 18.499 -9.5 28.999q-6.99902 10.499 -18.998 14.999q-12 4.49902 -29.999 4.49902h-23.998v68.9961h50.9971
q59.9961 0 89.4941 -37.998q29.498 -37.9971 29.498 -119.992v-200.987q0 -20.999 2 -35.998t9 -24.499q6.99902 -9.49902 20.998 -13.999q13.999 -4.49902 37.998 -4.49902v-68.9961q-23.999 0 -37.998 -4.5t-20.998 -13.999q-7 -9.49902 -9 -24.998t-2 -36.498v-199.988
q0 -81.9951 -29.498 -119.992q-29.498 -37.998 -89.4941 -37.998h-50.9971v68.9961h23.998q17.999 0 29.999 4.5q11.999 4.49902 18.998 14.999q7 10.499 9.5 28.998t2.5 47.4971v178.989z" />
    <glyph glyph-name="asciitilde" unicode="~" horiz-adv-x="302" 
d="M272 386q0 -60 -14.5 -87.5t-44.5 -27.5q-33 0 -66 37l-3 3q-27 31 -51 31q-27 0 -27 -50v-19h-36v19q0 115 61 115q32 0 68 -36l4 -4q30 -30 49 -30q25 0 25 49v19h35v-19z" />
    <glyph glyph-name="exclamdown" unicode="&#xa1;" horiz-adv-x="155" 
d="M35 -60l12 448h62l11 -448v-100h-85v100zM30 541h95v-98h-95v98z" />
    <glyph glyph-name="cent" unicode="&#xa2;" horiz-adv-x="278" 
d="M104 624h70l-4 -72q88 -19 88 -139v-76h-81v87q0 33 -8.5 47.5t-28.5 14.5q-39 0 -39 -62v-307q0 -33 9 -48t29 -15t29 15t9 48v97h81v-86q0 -121 -88 -140l4 -72h-70l4 72q-88 19 -88 140v285q0 120 88 139z" />
    <glyph glyph-name="sterling" unicode="&#xa3;" horiz-adv-x="332" 
d="M223 451v134q0 62 -40 62t-40 -62v-272h126v-69h-126v-40q0 -46 -5.5 -77t-24.5 -58h196v-69h-286v69q12 14 19 26.5t10.5 27.5t4.5 33.5t1 43.5v44h-35v69h35v261q0 73 33.5 107.5t91.5 34.5q59 0 92 -34.5t33 -107.5v-123h-85z" />
    <glyph glyph-name="currency" unicode="&#xa4;" horiz-adv-x="534" 
d="M30 700h474v-700h-474v700zM292 350l162 -267v534zM242 350l-162 267v-534zM110 650l157 -259l157 259h-314zM267 309l-157 -259h314z" />
    <glyph glyph-name="yen" unicode="&#xa5;" horiz-adv-x="280" 
d="M251 228h-68v-36h68v-59h-68v-133h-85v133h-68v59h68v36h-68v59h58l-77 413h85l35 -300l8 -78h4l8 78l35 300h85l-78 -413h58v-59z" />
    <glyph glyph-name="brokenbar" unicode="&#xa6;" horiz-adv-x="145" 
d="M30 -185v408h85v-408h-85zM30 343v407h85v-407h-85z" />
    <glyph glyph-name="section" unicode="&#xa7;" horiz-adv-x="301" 
d="M150 170q17 0 28.5 10.5t11.5 38.5v61q0 14 -5.5 26.5t-13.5 26.5q-7 3 -15 3q-19 0 -30.5 -11t-11.5 -39v-63q0 -24 14 -47q9 -6 22 -6zM187 522v84q0 28 -10 38.5t-25 10.5t-25.5 -11t-10.5 -39v-56q0 -29 20.5 -56t44.5 -52q17 -15 33 -32t28.5 -36.5t20.5 -42.5
t8 -50v-42q0 -51 -24.5 -84t-65.5 -42q16 -15 31.5 -31.5t28 -36t20 -41.5t7.5 -49v-35q0 -60 -33 -94.5t-86 -34.5q-54 0 -86.5 34.5t-32.5 95.5v65h81v-85q0 -28 10.5 -38.5t27.5 -10.5t27.5 10.5t10.5 38.5v54q0 15 -7 30.5t-18 30.5t-25 30t-28 29q-29 30 -52.5 65
t-23.5 83v46q0 51 23 83t64 42q-5 3 -8 8q-30 29 -53.5 64.5t-23.5 82.5v39q0 60 31.5 94t85.5 34q53 0 84.5 -34t31.5 -94v-65h-81z" />
    <glyph glyph-name="dieresis" unicode="&#xa8;" horiz-adv-x="255" 
d="M30 674h77v-84h-77v84zM147 674h77v-84h-77v84z" />
    <glyph glyph-name="copyright" unicode="&#xa9;" horiz-adv-x="606" 
d="M301 32q48 0 88.5 16.5t69 49.5t44.5 82.5t16 116.5v107q0 66 -16 116t-44.5 83t-69 49.5t-88.5 16.5q-97 0 -155 -65.5t-58 -199.5v-107q0 -134 58 -199.5t155 -65.5zM338 474q0 32 -8.5 45.5t-27.5 13.5q-35 0 -35 -50v-259q0 -29 8.5 -41.5t26.5 -12.5q19 0 27.5 13.5
t8.5 45.5v73h60v-68q0 -58 -25.5 -85.5t-70.5 -27.5t-70 26t-25 81v251q0 52 25 77t70 25t70.5 -27t25.5 -85v-65h-60v70zM30 403q0 75 19 133.5t54 98t85 60.5t111 21q62 0 113 -21t88 -60.5t57 -98t20 -133.5v-106q0 -75 -20 -133t-57 -97.5t-88 -60.5t-113 -21
q-61 0 -111 20.5t-85 60.5t-54 98t-19 133v106z" />
    <glyph glyph-name="ordfeminine" unicode="&#xaa;" horiz-adv-x="202" 
d="M97 443q11 0 18.5 13.5t7.5 39.5v27q0 14 -6.5 22t-17.5 8q-19 0 -19 -32v-46q0 -32 17 -32zM131 409l-3 45h-3q-6 -23 -19.5 -38t-31.5 -15q-20 0 -31.5 20t-11.5 59v37q0 78 46 78q17 0 27.5 -10.5t15.5 -28.5h3v84q0 33 -21 33q-20 0 -20 -31v-28h-50v23q0 78 70 78
t70 -78v-228h-41z" />
    <glyph glyph-name="guillemotleft" unicode="&#xab;" horiz-adv-x="499" 
d="M30 236v57l213 115v-78l-125 -64v-3l125 -63v-78zM255 236v57l213 115v-78l-125 -64v-3l125 -63v-78z" />
    <glyph glyph-name="logicalnot" unicode="&#xac;" horiz-adv-x="534" 
d="M30 700h474v-700h-474v700zM292 350l162 -267v534zM242 350l-162 267v-534zM110 650l157 -259l157 259h-314zM267 309l-157 -259h314z" />
    <glyph glyph-name="registered" unicode="&#xae;" horiz-adv-x="606" 
d="M301 32q48 0 88.5 16.5t69 49.5t44.5 83t16 116v107q0 66 -16 116t-44.5 83t-69 49.5t-88.5 16.5q-97 0 -155 -65.5t-58 -199.5v-107q0 -134 58 -199.5t155 -65.5zM272 359h19q24 0 35.5 13.5t11.5 36.5v70q0 54 -47 54h-19v-174zM30 404q0 75 19 133t54 98t85 60.5
t111 20.5q62 0 113 -21t88 -60.5t57 -97.5t20 -133v-106q0 -75 -20 -133.5t-57 -98t-88 -60.5t-113 -21q-61 0 -111 20.5t-85 60.5t-54 98.5t-19 133.5v106zM291 581q51 0 79 -29t28 -84v-45q0 -31 -13.5 -54t-39.5 -32v-3q26 -8 39.5 -30.5t13.5 -53.5v-53q0 -20 1 -34.5
t6 -37.5v-4h-60q-4 25 -5.5 40.5t-1.5 35.5v66q0 48 -47 48h-19v-190h-60v460h79z" />
    <glyph glyph-name="macron" unicode="&#xaf;" horiz-adv-x="240" 
d="M210 602h-180v59h180v-59z" />
    <glyph glyph-name="degree" unicode="&#xb0;" horiz-adv-x="246" 
d="M216 581q0 -124 -92 -124q-94 0 -94 124v11q0 123 94 123q92 0 92 -123v-11zM156 602q0 32 -7.5 45.5t-24.5 13.5q-18 0 -26 -13.5t-8 -45.5v-31q0 -32 8 -46t25 -14t25 14t8 46v31z" />
    <glyph glyph-name="plusminus" unicode="&#xb1;" horiz-adv-x="431" 
d="M401 320h-148v-144h-75v144h-148v69h148v144h75v-144h148v-69zM396 33h-361v69h361v-69z" />
    <glyph glyph-name="twosuperior" unicode="&#xb2;" horiz-adv-x="202" 
d="M30 628q0 45 19 66.5t52 21.5t52 -22.5t19 -70.5v-43q0 -35 -14 -57t-31 -41q-17 -17 -31 -37.5t-14 -48.5v-36h85v-43h-137v76q0 44 18 71t36 46q15 16 26 33t11 40v52q0 22 -5 30.5t-16 8.5q-9 0 -13.5 -8t-4.5 -29v-72h-52v63z" />
    <glyph glyph-name="threesuperior" unicode="&#xb3;" horiz-adv-x="202" 
d="M172 577q0 -22 -7 -36t-24 -19v-2q17 -6 24 -19t7 -35v-75q0 -39 -18.5 -58.5t-51.5 -19.5q-35 0 -53.5 20t-18.5 58v75h52v-79q0 -32 19 -32q20 0 20 32v74q0 21 -5.5 29t-21.5 8h-10v43h10q15 0 21 8.5t6 30.5v60q0 33 -20 33q-19 0 -19 -33v-66h-52v63q0 38 18.5 58
t53.5 20q33 0 51.5 -20t18.5 -58v-60z" />
    <glyph glyph-name="acute" unicode="&#xb4;" horiz-adv-x="159" 
d="M30 563l34 137h65l-45 -137h-54z" />
    <glyph glyph-name="paragraph" unicode="&#xb6;" horiz-adv-x="462" 
d="M347 -185v935h85v-935h-85zM210 -185v418q-47 0 -81 7.5t-56 34.5t-32.5 79t-10.5 141q0 87 10 137.5t31.5 76.5t54 33.5t77.5 7.5h92v-935h-85z" />
    <glyph glyph-name="periodcentered" unicode="&#xb7;" horiz-adv-x="155" 
d="M30 318h95v-98h-95v98z" />
    <glyph glyph-name="cedilla" unicode="&#xb8;" horiz-adv-x="216" 
d="M103 -3l-4 -43q39 0 63.5 -18.5t24.5 -48.5q0 -32 -28.5 -53t-70.5 -21q-13 0 -28 2t-30 5v41q8 -3 15.5 -4t15.5 -1q23 0 39 10.5t16 25.5q0 16 -17.5 24.5t-47.5 8.5l11 72h41z" />
    <glyph glyph-name="onesuperior" unicode="&#xb9;" horiz-adv-x="162" 
d="M107 358h25v-43h-102v43h25v266h-19v34q17 0 22.5 11t5.5 31h43v-342z" />
    <glyph glyph-name="ordmasculine" unicode="&#xba;" horiz-adv-x="207" 
d="M126 641q0 32 -22 32q-11 0 -16.5 -7t-5.5 -25v-254q0 -32 23 -32q11 0 16 7.5t5 25.5v253zM177 392q0 -79 -73 -79q-35 0 -54.5 20t-19.5 59v245q0 78 74 78q73 0 73 -78v-245z" />
    <glyph glyph-name="guillemotright" unicode="&#xbb;" horiz-adv-x="499" 
d="M468.002 294.015v-56.9971l-212.987 -114.992v77.9951l124.992 63.9961v2.99902l-124.992 62.9961v77.9961zM243.016 294.015v-56.9971l-212.987 -114.992v77.9951l124.992 63.9961v2.99902l-124.992 62.9961v77.9961z" />
    <glyph glyph-name="onequarter" unicode="&#xbc;" horiz-adv-x="415" 
d="M107 358h25v-43h-102v43h25v266h-19v34q17 0 22.5 11t5.5 31h43v-342zM91 0l168 700h56l-168 -700h-56zM372 0h-52v61h-88v37l71 287h69v-281h14v-43h-14v-61zM320 104v92l9 114l-3 1l-6 -41l-36 -166h36z" />
    <glyph glyph-name="onehalf" unicode="&#xbd;" horiz-adv-x="443" 
d="M91 0l168 700h56l-168 -700h-56zM272 313q0 45 19 66.5t52 21.5t52 -22.5t19 -70.5v-43q0 -35 -14 -57t-31 -41q-17 -17 -31 -37.5t-14 -48.5v-36h85v-43h-137v76q0 44 18 71t36 46q15 16 26 33t11 40v52q0 22 -5 30.5t-16 8.5q-9 0 -13.5 -8t-4.5 -29v-72h-52v63z
M107 358h25v-43h-102v43h25v266h-19v34q17 0 22.5 11t5.5 31h43v-342z" />
    <glyph glyph-name="threequarters" unicode="&#xbe;" horiz-adv-x="450" 
d="M126 0l168 700h56l-168 -700h-56zM407 0h-52v61h-88v37l71 287h69v-281h14v-43h-14v-61zM355 104v92l9 114l-3 1l-6 -41l-36 -166h36zM172 577q0 -22 -7 -36t-24 -19v-2q17 -6 24 -19t7 -35v-75q0 -39 -18.5 -58.5t-51.5 -19.5q-35 0 -53.5 20t-18.5 58v75h52v-79
q0 -32 19 -32q20 0 20 32v74q0 21 -5.5 29t-21.5 8h-10v43h10q15 0 21 8.5t6 30.5v60q0 33 -20 33q-19 0 -19 -33v-66h-52v63q0 38 18.5 58t53.5 20q33 0 51.5 -20t18.5 -58v-60z" />
    <glyph glyph-name="questiondown" unicode="&#xbf;" horiz-adv-x="308" 
d="M278 -15q0 -82 -33 -121t-92 -39q-57 0 -90 38.5t-33 120.5v69q0 58 16 96.5t36 70.5q17 30 32.5 64.5t15.5 85.5v18h85v-14q0 -36 -5.5 -65t-14 -53t-19 -43t-21.5 -36q-16 -26 -28 -56.5t-12 -68.5v-83q0 -42 10 -58.5t30 -16.5q19 0 28.5 15.5t9.5 55.5v126h85v-106z
M125 443v98h95v-98h-95z" />
    <glyph glyph-name="Agrave" unicode="&#xc0;" horiz-adv-x="280" 
d="M146 505l-4 71h-4l-4 -71l-20 -265h52zM270 0h-85l-13 171h-64l-13 -171h-85l76 700h109zM67 877h65l34 -137h-54z" />
    <glyph glyph-name="Aacute" unicode="&#xc1;" horiz-adv-x="280" 
d="M146 505l-4 71h-4l-4 -71l-20 -265h52zM270 0h-85l-13 171h-64l-13 -171h-85l76 700h109zM114 740l34 137h65l-45 -137h-54z" />
    <glyph glyph-name="Acircumflex" unicode="&#xc2;" horiz-adv-x="280" 
d="M146 505l-4 71h-4l-4 -71l-20 -265h52zM270 0h-85l-13 171h-64l-13 -171h-85l76 700h109zM66 740l42 137h65l42 -137h-50l-23 97h-3l-23 -97h-50z" />
    <glyph glyph-name="Atilde" unicode="&#xc3;" horiz-adv-x="280" 
d="M146 505l-4 71h-4l-4 -71l-20 -265h52zM270 0h-85l-13 171h-64l-13 -171h-85l76 700h109zM230 847q0 -107 -47 -107q-26 0 -49 41l-4 6q-16 29 -30 29q-19 0 -19 -47v-26h-30v25q0 54 12 82t36 28q14 0 24.5 -9.5t21.5 -28.5l3 -6q19 -31 34 -31q19 0 19 44v28h29v-28z
" />
    <glyph glyph-name="Adieresis" unicode="&#xc4;" horiz-adv-x="280" 
d="M146 505l-4 71h-4l-4 -71l-20 -265h52zM270 0h-85l-13 171h-64l-13 -171h-85l76 700h109zM43 851h77v-84h-77v84zM160 851h77v-84h-77v84z" />
    <glyph glyph-name="Aring" unicode="&#xc5;" horiz-adv-x="280" 
d="M146 505l-4 71h-4l-4 -71l-20 -265h52zM270 0h-85l-13 171h-64l-13 -171h-85l76 700h109zM74 809q0 33 17.5 50.5t48.5 17.5q32 0 49.5 -17.5t17.5 -50.5t-17 -51t-49 -18t-49.5 18t-17.5 51zM108 809q0 -37 33 -37q32 0 32 37q0 36 -32 36q-15 0 -24 -9.5t-9 -26.5z" />
    <glyph glyph-name="AE" unicode="&#xc6;" horiz-adv-x="378" 
d="M183 240v351h-4l-50 -351h54zM357 631h-91v-247h85v-69h-85v-246h100v-69h-183v171h-64l-24 -171h-85l113 700h234v-69z" />
    <glyph glyph-name="Ccedilla" unicode="&#xc7;" 
d="M188 584q0 62 -40 62t-40 -62v-467q0 -63 40 -63q21 0 30.5 15t9.5 48v144h85v-133q0 -73 -33 -108t-91 -35t-92 35t-34 108v445q0 73 33.5 107.5t91.5 34.5q59 0 92 -34.5t33 -107.5v-123h-85v134zM170 -3l-4 -43q39 0 63.5 -18.5t24.5 -48.5q0 -32 -28.5 -53t-70.5 -21
q-13 0 -28 2t-30 5v41q8 -3 15.5 -4t15.5 -1q23 0 39 10.5t16 25.5q0 16 -17.5 24.5t-47.5 8.5l11 72h41z" />
    <glyph glyph-name="Egrave" unicode="&#xc8;" horiz-adv-x="222" 
d="M201 631h-91v-236h85v-69h-85v-257h100v-69h-185v700h176v-69zM40 877h65l34 -137h-54z" />
    <glyph glyph-name="Eacute" unicode="&#xc9;" horiz-adv-x="222" 
d="M201 631h-91v-236h85v-69h-85v-257h100v-69h-185v700h176v-69zM87 740l34 137h65l-45 -137h-54z" />
    <glyph glyph-name="Ecircumflex" unicode="&#xca;" horiz-adv-x="222" 
d="M201 631h-91v-236h85v-69h-85v-257h100v-69h-185v700h176v-69zM39 740l42 137h65l42 -137h-50l-23 97h-3l-23 -97h-50z" />
    <glyph glyph-name="Edieresis" unicode="&#xcb;" horiz-adv-x="222" 
d="M201 631h-91v-236h85v-69h-85v-257h100v-69h-185v700h176v-69zM16 851h77v-84h-77v84zM133 851h77v-84h-77v84z" />
    <glyph glyph-name="Igrave" unicode="&#xcc;" horiz-adv-x="155" 
d="M120 0h-85v700h85v-700zM5 877h65l34 -137h-54z" />
    <glyph glyph-name="Iacute" unicode="&#xcd;" horiz-adv-x="155" 
d="M120 0h-85v700h85v-700zM52 740l34 137h65l-45 -137h-54z" />
    <glyph glyph-name="Icircumflex" unicode="&#xce;" horiz-adv-x="155" 
d="M120 0h-85v700h85v-700zM3 740l42 137h65l42 -137h-50l-23 97h-3l-23 -97h-50z" />
    <glyph glyph-name="Idieresis" unicode="&#xcf;" horiz-adv-x="155" 
d="M120 0h-85v700h85v-700zM-19 851h77v-84h-77v84zM98 851h77v-84h-77v84z" />
    <glyph glyph-name="Eth" unicode="&#xd0;" horiz-adv-x="302" 
d="M279 143q0 -73 -35.5 -108t-98.5 -35h-116v700h115q63 0 99 -34.5t36 -107.5v-415zM194 569q0 33 -12 47.5t-38 14.5h-30v-562h30q26 0 38 15t12 48v437zM152 320h-150v57h150v-57z" />
    <glyph glyph-name="Ntilde" unicode="&#xd1;" horiz-adv-x="315" 
d="M290 0h-103l-97 558l-4 -1l5 -72l19 -485h-85v700h103l84 -473l12 -72l4 1l-5 72l-18 472h85v-700zM257 847q0 -107 -47 -107q-26 0 -49 41l-4 6q-16 29 -30 29q-19 0 -19 -47v-26h-30v25q0 54 12 82t36 28q14 0 24.5 -9.5t21.5 -28.5l3 -6q19 -31 34 -31q19 0 19 44v28
h29v-28z" />
    <glyph glyph-name="Ograve" unicode="&#xd2;" 
d="M273 128q0 -72 -32 -107.5t-92 -35.5t-93 36t-33 107v445q0 71 33 106.5t93 35.5t92 -35t32 -107v-445zM188 584q0 33 -9.5 47.5t-30.5 14.5t-30.5 -14.5t-9.5 -47.5v-467q0 -63 40 -63q21 0 30.5 15t9.5 48v467zM76 877h65l34 -137h-54z" />
    <glyph glyph-name="Oacute" unicode="&#xd3;" 
d="M273 128q0 -72 -32 -107.5t-92 -35.5t-93 36t-33 107v445q0 71 33 106.5t93 35.5t92 -35t32 -107v-445zM188 584q0 33 -9.5 47.5t-30.5 14.5t-30.5 -14.5t-9.5 -47.5v-467q0 -63 40 -63q21 0 30.5 15t9.5 48v467zM122 740l34 137h65l-45 -137h-54z" />
    <glyph glyph-name="Ocircumflex" unicode="&#xd4;" 
d="M273 128q0 -72 -32 -107.5t-92 -35.5t-93 36t-33 107v445q0 71 33 106.5t93 35.5t92 -35t32 -107v-445zM188 584q0 33 -9.5 47.5t-30.5 14.5t-30.5 -14.5t-9.5 -47.5v-467q0 -63 40 -63q21 0 30.5 15t9.5 48v467zM74 740l42 137h65l42 -137h-50l-23 97h-3l-23 -97h-50z
" />
    <glyph glyph-name="Otilde" unicode="&#xd5;" 
d="M273 128q0 -72 -32 -107.5t-92 -35.5t-93 36t-33 107v445q0 71 33 106.5t93 35.5t92 -35t32 -107v-445zM188 584q0 33 -9.5 47.5t-30.5 14.5t-30.5 -14.5t-9.5 -47.5v-467q0 -63 40 -63q21 0 30.5 15t9.5 48v467zM239 847q0 -107 -47 -107q-26 0 -49 41l-4 6
q-16 29 -30 29q-19 0 -19 -47v-26h-30v25q0 54 12 82t36 28q14 0 24.5 -9.5t21.5 -28.5l3 -6q19 -31 34 -31q19 0 19 44v28h29v-28z" />
    <glyph glyph-name="Odieresis" unicode="&#xd6;" 
d="M273 128q0 -72 -32 -107.5t-92 -35.5t-93 36t-33 107v445q0 71 33 106.5t93 35.5t92 -35t32 -107v-445zM188 584q0 33 -9.5 47.5t-30.5 14.5t-30.5 -14.5t-9.5 -47.5v-467q0 -63 40 -63q21 0 30.5 15t9.5 48v467zM52 851h77v-84h-77v84zM169 851h77v-84h-77v84z" />
    <glyph glyph-name="multiply" unicode="&#xd7;" horiz-adv-x="401" 
d="M371 463l-117 -118l117 -117l-53 -53l-117 117l-118 -117l-53 53l118 117l-118 118l53 53l118 -118l117 118z" />
    <glyph glyph-name="Oslash" unicode="&#xd8;" 
d="M148 54q21 0 30.5 15t9.5 48v314l-80 -258v-56q0 -63 40 -63zM188 584q0 33 -9.5 47.5t-30.5 14.5t-30.5 -14.5t-9.5 -47.5v-315l80 258v57zM247 715l26 -10l-16 -51q16 -31 16 -81v-445q0 -72 -32 -107.5t-92 -35.5q-57 0 -89 32l-10 -32l-27 10l16 52q-16 34 -16 81
v445q0 71 33 106.5t93 35.5q56 0 88 -32z" />
    <glyph glyph-name="Ugrave" unicode="&#xd9;" horiz-adv-x="306" 
d="M283 128q0 -73 -34.5 -108t-94.5 -35q-61 0 -96 35t-35 108v572h85v-583q0 -63 45 -63q23 0 34 15t11 48v583h85v-572zM80 877h65l34 -137h-54z" />
    <glyph glyph-name="Uacute" unicode="&#xda;" horiz-adv-x="306" 
d="M283 128q0 -73 -34.5 -108t-94.5 -35q-61 0 -96 35t-35 108v572h85v-583q0 -63 45 -63q23 0 34 15t11 48v583h85v-572zM127 740l34 137h65l-45 -137h-54z" />
    <glyph glyph-name="Ucircumflex" unicode="&#xdb;" horiz-adv-x="306" 
d="M283 128q0 -73 -34.5 -108t-94.5 -35q-61 0 -96 35t-35 108v572h85v-583q0 -63 45 -63q23 0 34 15t11 48v583h85v-572zM79 740l42 137h65l42 -137h-50l-23 97h-3l-23 -97h-50z" />
    <glyph glyph-name="Udieresis" unicode="&#xdc;" horiz-adv-x="306" 
d="M283 128q0 -73 -34.5 -108t-94.5 -35q-61 0 -96 35t-35 108v572h85v-583q0 -63 45 -63q23 0 34 15t11 48v583h85v-572zM56 851h77v-84h-77v84zM173 851h77v-84h-77v84z" />
    <glyph glyph-name="Yacute" unicode="&#xdd;" horiz-adv-x="280" 
d="M183 235v-235h-85v235l-87 465h85l35 -300l8 -78h4l8 78l35 300h85zM114 740l34 137h65l-45 -137h-54z" />
    <glyph glyph-name="Thorn" unicode="&#xde;" horiz-adv-x="298" 
d="M275 276q0 -73 -35.5 -110.5t-98.5 -37.5h-31v-128h-85v700h85v-127h30q63 0 99 -37t36 -110v-150zM190 442q0 62 -50 62h-30v-307h30q26 0 38 15t12 48v182z" />
    <glyph glyph-name="germandbls" unicode="&#xdf;" horiz-adv-x="288" 
d="M148 755q53 0 87.5 -34.5t34.5 -111.5v-100q0 -54 -16 -84.5t-51 -41.5v-3q72 -24 72 -127v-110q0 -73 -35.5 -108t-98.5 -35h-7v69h6q26 0 38 15t12 48v142q0 38 -13 55t-42 17h-8v69h8q29 0 39.5 15.5t10.5 57.5v132q0 35 -11 48t-26 13t-26.5 -13t-11.5 -48v-620h-85
v615q0 73 35 106.5t88 33.5z" />
    <glyph glyph-name="agrave" unicode="&#xe0;" horiz-adv-x="281" 
d="M195 0l-7 80h-3q-11 -41 -34 -68t-55 -27q-35 0 -55 36t-20 107v67q0 142 79 142q29 0 48.5 -18.5t28.5 -50.5h3v156q0 33 -9 47.5t-29 14.5t-29 -14.5t-9 -47.5v-52h-81v41q0 72 30.5 107t88.5 35q57 0 88 -35t31 -107v-413h-66zM133 54q21 0 34 26t13 77v49
q0 29 -12 45.5t-32 16.5q-17 0 -25.5 -14.5t-8.5 -47.5v-89q0 -33 7.5 -48t23.5 -15zM68 717h65l34 -137h-54z" />
    <glyph glyph-name="aacute" unicode="&#xe1;" horiz-adv-x="281" 
d="M195 0l-7 80h-3q-11 -41 -34 -68t-55 -27q-35 0 -55 36t-20 107v67q0 142 79 142q29 0 48.5 -18.5t28.5 -50.5h3v156q0 33 -9 47.5t-29 14.5t-29 -14.5t-9 -47.5v-52h-81v41q0 72 30.5 107t88.5 35q57 0 88 -35t31 -107v-413h-66zM133 54q21 0 34 26t13 77v49
q0 29 -12 45.5t-32 16.5q-17 0 -25.5 -14.5t-8.5 -47.5v-89q0 -33 7.5 -48t23.5 -15zM115 580l34 137h65l-45 -137h-54z" />
    <glyph glyph-name="acircumflex" unicode="&#xe2;" horiz-adv-x="281" 
d="M195 0l-7 80h-3q-11 -41 -34 -68t-55 -27q-35 0 -55 36t-20 107v67q0 142 79 142q29 0 48.5 -18.5t28.5 -50.5h3v156q0 33 -9 47.5t-29 14.5t-29 -14.5t-9 -47.5v-52h-81v41q0 72 30.5 107t88.5 35q57 0 88 -35t31 -107v-413h-66zM133 54q21 0 34 26t13 77v49
q0 29 -12 45.5t-32 16.5q-17 0 -25.5 -14.5t-8.5 -47.5v-89q0 -33 7.5 -48t23.5 -15zM67 580l42 137h65l42 -137h-50l-23 97h-3l-23 -97h-50z" />
    <glyph glyph-name="atilde" unicode="&#xe3;" horiz-adv-x="281" 
d="M195 0l-7 80h-3q-11 -41 -34 -68t-55 -27q-35 0 -55 36t-20 107v67q0 142 79 142q29 0 48.5 -18.5t28.5 -50.5h3v156q0 33 -9 47.5t-29 14.5t-29 -14.5t-9 -47.5v-52h-81v41q0 72 30.5 107t88.5 35q57 0 88 -35t31 -107v-413h-66zM133 54q21 0 34 26t13 77v49
q0 29 -12 45.5t-32 16.5q-17 0 -25.5 -14.5t-8.5 -47.5v-89q0 -33 7.5 -48t23.5 -15zM231 687q0 -107 -47 -107q-26 0 -49 41l-4 6q-16 29 -30 29q-19 0 -19 -47v-26h-30v25q0 54 12 82t36 28q14 0 24.5 -9.5t21.5 -28.5l3 -6q19 -31 34 -31q19 0 19 44v28h29v-28z" />
    <glyph glyph-name="adieresis" unicode="&#xe4;" horiz-adv-x="281" 
d="M195 0l-7 80h-3q-11 -41 -34 -68t-55 -27q-35 0 -55 36t-20 107v67q0 142 79 142q29 0 48.5 -18.5t28.5 -50.5h3v156q0 33 -9 47.5t-29 14.5t-29 -14.5t-9 -47.5v-52h-81v41q0 72 30.5 107t88.5 35q57 0 88 -35t31 -107v-413h-66zM133 54q21 0 34 26t13 77v49
q0 29 -12 45.5t-32 16.5q-17 0 -25.5 -14.5t-8.5 -47.5v-89q0 -33 7.5 -48t23.5 -15zM44 691h77v-84h-77v84zM161 691h77v-84h-77v84z" />
    <glyph glyph-name="aring" unicode="&#xe5;" horiz-adv-x="281" 
d="M195 0l-7 80h-3q-11 -41 -34 -68t-55 -27q-35 0 -55 36t-20 107v67q0 142 79 142q29 0 48.5 -18.5t28.5 -50.5h3v156q0 33 -9 47.5t-29 14.5t-29 -14.5t-9 -47.5v-52h-81v41q0 72 30.5 107t88.5 35q57 0 88 -35t31 -107v-413h-66zM133 54q21 0 34 26t13 77v49
q0 29 -12 45.5t-32 16.5q-17 0 -25.5 -14.5t-8.5 -47.5v-89q0 -33 7.5 -48t23.5 -15zM75 649q0 33 17.5 50.5t48.5 17.5q32 0 49.5 -17.5t17.5 -50.5t-17 -51t-49 -18t-49.5 18t-17.5 51zM109 649q0 -37 33 -37q32 0 32 37q0 36 -32 36q-15 0 -24 -9.5t-9 -26.5z" />
    <glyph glyph-name="ae" unicode="&#xe6;" horiz-adv-x="438" 
d="M21 195q0 142 79 142q29 0 49 -18.5t31 -50.5v156q0 33 -9 47.5t-29 14.5t-29 -14.5t-9 -47.5v-52h-81v41q0 72 30.5 107t88.5 35q26 0 45.5 -9.5t32.5 -35.5h2q13 26 32.5 35.5t45.5 9.5q57 0 87.5 -35t30.5 -107v-158h-157v-138q0 -33 9 -48t29 -15t29 15t9 48v87h81
v-76q0 -72 -30.5 -107.5t-87.5 -35.5q-93 0 -111 96h-2q-11 -42 -35 -69t-56 -27q-35 0 -55 36t-20 107v67zM337 424q0 33 -8.5 47.5t-28.5 14.5t-29.5 -14.5t-9.5 -47.5v-110h76v110zM133 54q21 0 34 26t13 77v49q0 29 -12 45.5t-32 16.5q-17 0 -25.5 -14.5t-8.5 -47.5v-89
q0 -33 7.5 -48t23.5 -15z" />
    <glyph glyph-name="ccedilla" unicode="&#xe7;" horiz-adv-x="277" 
d="M177 424q0 34 -8.5 48.5t-28.5 14.5t-29.5 -15t-9.5 -48v-307q0 -33 9 -48t29 -15t29 15t9 48v97h81v-86q0 -72 -30.5 -107.5t-87.5 -35.5q-58 0 -89 35.5t-31 107.5v285q0 72 31 107.5t89 35.5q57 0 87.5 -35.5t30.5 -107.5v-76h-81v87zM161 -3l-4 -43q39 0 63.5 -18.5
t24.5 -48.5q0 -32 -28.5 -53t-70.5 -21q-13 0 -28 2t-30 5v41q8 -3 15.5 -4t15.5 -1q23 0 39 10.5t16 25.5q0 16 -17.5 24.5t-47.5 8.5l11 72h41z" />
    <glyph glyph-name="egrave" unicode="&#xe8;" horiz-adv-x="278" 
d="M139 54q20 0 29 15t9 48v87h81v-76q0 -72 -30.5 -107.5t-87.5 -35.5q-58 0 -89 35.5t-31 107.5v285q0 72 31 107t89 35q57 0 87.5 -35t30.5 -107v-158h-157v-138q0 -33 9 -48t29 -15zM177 424q0 33 -8.5 47.5t-28.5 14.5t-29.5 -14.5t-9.5 -47.5v-110h76v110zM67 717h65
l34 -137h-54z" />
    <glyph glyph-name="eacute" unicode="&#xe9;" horiz-adv-x="278" 
d="M139 54q20 0 29 15t9 48v87h81v-76q0 -72 -30.5 -107.5t-87.5 -35.5q-58 0 -89 35.5t-31 107.5v285q0 72 31 107t89 35q57 0 87.5 -35t30.5 -107v-158h-157v-138q0 -33 9 -48t29 -15zM177 424q0 33 -8.5 47.5t-28.5 14.5t-29.5 -14.5t-9.5 -47.5v-110h76v110zM113 580
l34 137h65l-45 -137h-54z" />
    <glyph glyph-name="ecircumflex" unicode="&#xea;" horiz-adv-x="278" 
d="M139 54q20 0 29 15t9 48v87h81v-76q0 -72 -30.5 -107.5t-87.5 -35.5q-58 0 -89 35.5t-31 107.5v285q0 72 31 107t89 35q57 0 87.5 -35t30.5 -107v-158h-157v-138q0 -33 9 -48t29 -15zM177 424q0 33 -8.5 47.5t-28.5 14.5t-29.5 -14.5t-9.5 -47.5v-110h76v110zM65 580
l42 137h65l42 -137h-50l-23 97h-3l-23 -97h-50z" />
    <glyph glyph-name="edieresis" unicode="&#xeb;" horiz-adv-x="278" 
d="M139 54q20 0 29 15t9 48v87h81v-76q0 -72 -30.5 -107.5t-87.5 -35.5q-58 0 -89 35.5t-31 107.5v285q0 72 31 107t89 35q57 0 87.5 -35t30.5 -107v-158h-157v-138q0 -33 9 -48t29 -15zM177 424q0 33 -8.5 47.5t-28.5 14.5t-29.5 -14.5t-9.5 -47.5v-110h76v110zM43 691h77
v-84h-77v84zM160 691h77v-84h-77v84z" />
    <glyph glyph-name="igrave" unicode="&#xec;" horiz-adv-x="127" 
d="M23 540h81v-540h-81v540zM-10 717h65l34 -137h-54z" />
    <glyph glyph-name="iacute" unicode="&#xed;" horiz-adv-x="127" 
d="M23 540h81v-540h-81v540zM37 580l34 137h65l-45 -137h-54z" />
    <glyph glyph-name="icircumflex" unicode="&#xee;" horiz-adv-x="127" 
d="M23 540h81v-540h-81v540zM-11 580l42 137h65l42 -137h-50l-23 97h-3l-23 -97h-50z" />
    <glyph glyph-name="idieresis" unicode="&#xef;" horiz-adv-x="127" 
d="M23 540h81v-540h-81v540zM-34 691h77v-84h-77v84zM83 691h77v-84h-77v84z" />
    <glyph glyph-name="eth" unicode="&#xf0;" horiz-adv-x="278" 
d="M231 698l-39 -27q35 -42 50.5 -104.5t15.5 -158.5v-280q0 -72 -30.5 -107.5t-87.5 -35.5q-58 0 -89 35.5t-31 107.5v285q0 72 22 107t63 35q49 0 68 -49l4 1q-4 42 -11 74.5t-21 57.5l-47 -31l-16 23l47 33q-28 35 -79 59l11 27q67 -21 110 -58l44 30zM177 424
q0 34 -8.5 48t-28.5 14t-29.5 -14.5t-9.5 -47.5v-307q0 -33 9 -48t29 -15t29 15t9 50v305z" />
    <glyph glyph-name="ntilde" unicode="&#xf1;" horiz-adv-x="284" 
d="M180 0v423q0 33 -8 48t-25 15q-19 0 -31 -19t-12 -59v-408h-81v540h66l9 -58h3q11 35 32 54t48 19q38 0 59 -36t21 -107v-412h-81zM236 687q0 -107 -47 -107q-26 0 -49 41l-4 6q-16 29 -30 29q-19 0 -19 -47v-26h-30v25q0 54 12 82t36 28q14 0 24.5 -9.5t21.5 -28.5l3 -6
q19 -31 34 -31q19 0 19 44v28h29v-28z" />
    <glyph glyph-name="ograve" unicode="&#xf2;" horiz-adv-x="278" 
d="M258 128q0 -72 -30.5 -107.5t-87.5 -35.5q-58 0 -89 35.5t-31 107.5v285q0 72 31 107t89 35q57 0 87.5 -35t30.5 -107v-285zM177 424q0 33 -8.5 47.5t-28.5 14.5t-29.5 -14.5t-9.5 -47.5v-307q0 -33 9 -48t29 -15t29 15t9 48v307zM67 717h65l34 -137h-54z" />
    <glyph glyph-name="oacute" unicode="&#xf3;" horiz-adv-x="278" 
d="M258 128q0 -72 -30.5 -107.5t-87.5 -35.5q-58 0 -89 35.5t-31 107.5v285q0 72 31 107t89 35q57 0 87.5 -35t30.5 -107v-285zM177 424q0 33 -8.5 47.5t-28.5 14.5t-29.5 -14.5t-9.5 -47.5v-307q0 -33 9 -48t29 -15t29 15t9 48v307zM113 580l34 137h65l-45 -137h-54z" />
    <glyph glyph-name="ocircumflex" unicode="&#xf4;" horiz-adv-x="278" 
d="M258 128q0 -72 -30.5 -107.5t-87.5 -35.5q-58 0 -89 35.5t-31 107.5v285q0 72 31 107t89 35q57 0 87.5 -35t30.5 -107v-285zM177 424q0 33 -8.5 47.5t-28.5 14.5t-29.5 -14.5t-9.5 -47.5v-307q0 -33 9 -48t29 -15t29 15t9 48v307zM65 580l42 137h65l42 -137h-50l-23 97
h-3l-23 -97h-50z" />
    <glyph glyph-name="otilde" unicode="&#xf5;" horiz-adv-x="278" 
d="M258 128q0 -72 -30.5 -107.5t-87.5 -35.5q-58 0 -89 35.5t-31 107.5v285q0 72 31 107t89 35q57 0 87.5 -35t30.5 -107v-285zM177 424q0 33 -8.5 47.5t-28.5 14.5t-29.5 -14.5t-9.5 -47.5v-307q0 -33 9 -48t29 -15t29 15t9 48v307zM230 687q0 -107 -47 -107q-26 0 -49 41
l-4 6q-16 29 -30 29q-19 0 -19 -47v-26h-30v25q0 54 12 82t36 28q14 0 24.5 -9.5t21.5 -28.5l3 -6q19 -31 34 -31q19 0 19 44v28h29v-28z" />
    <glyph glyph-name="odieresis" unicode="&#xf6;" horiz-adv-x="278" 
d="M258 128q0 -72 -30.5 -107.5t-87.5 -35.5q-58 0 -89 35.5t-31 107.5v285q0 72 31 107t89 35q57 0 87.5 -35t30.5 -107v-285zM177 424q0 33 -8.5 47.5t-28.5 14.5t-29.5 -14.5t-9.5 -47.5v-307q0 -33 9 -48t29 -15t29 15t9 48v307zM43 691h77v-84h-77v84zM160 691h77v-84
h-77v84z" />
    <glyph glyph-name="divide" unicode="&#xf7;" horiz-adv-x="404" 
d="M373 305h-343v69h343v-69zM159 508h86v-88h-86v88zM159 260h86v-88h-86v88z" />
    <glyph glyph-name="oslash" unicode="&#xf8;" horiz-adv-x="278" 
d="M139 54q20 0 29 15t9 48v215l-76 -200v-15q0 -33 9 -48t29 -15zM177 424q0 33 -8.5 47.5t-28.5 14.5t-29.5 -14.5t-9.5 -47.5v-215l76 200v15zM233 555l25 -10l-17 -46q17 -34 17 -86v-285q0 -72 -30.5 -107.5t-87.5 -35.5q-52 0 -84 30l-11 -30l-25 10l17 46
q-17 36 -17 87v285q0 72 31 107t89 35q52 0 81 -29z" />
    <glyph glyph-name="ugrave" unicode="&#xf9;" horiz-adv-x="284" 
d="M104 540v-423q0 -33 8.5 -48t25.5 -15q19 0 30.5 19t11.5 59v408h81v-540h-66l-8 58h-3q-23 -73 -81 -73q-38 0 -59 36t-21 107v412h81zM69 717h65l34 -137h-54z" />
    <glyph glyph-name="uacute" unicode="&#xfa;" horiz-adv-x="284" 
d="M104 540v-423q0 -33 8.5 -48t25.5 -15q19 0 30.5 19t11.5 59v408h81v-540h-66l-8 58h-3q-23 -73 -81 -73q-38 0 -59 36t-21 107v412h81zM116 580l34 137h65l-45 -137h-54z" />
    <glyph glyph-name="ucircumflex" unicode="&#xfb;" horiz-adv-x="284" 
d="M104 540v-423q0 -33 8.5 -48t25.5 -15q19 0 30.5 19t11.5 59v408h81v-540h-66l-8 58h-3q-23 -73 -81 -73q-38 0 -59 36t-21 107v412h81zM68 580l42 137h65l42 -137h-50l-23 97h-3l-23 -97h-50z" />
    <glyph glyph-name="udieresis" unicode="&#xfc;" horiz-adv-x="284" 
d="M104 540v-423q0 -33 8.5 -48t25.5 -15q19 0 30.5 19t11.5 59v408h81v-540h-66l-8 58h-3q-23 -73 -81 -73q-38 0 -59 36t-21 107v412h81zM45 691h77v-84h-77v84zM162 691h77v-84h-77v84z" />
    <glyph glyph-name="yacute" unicode="&#xfd;" horiz-adv-x="271" 
d="M180 -40q-5 -35 -12 -59t-24 -38t-46.5 -20t-79.5 -6v69q24 0 38 3t20.5 12.5t8.5 27t2 46.5l-79 545h85l37 -358l4 -63h4l4 63l36 358h85zM109 580l34 137h65l-45 -137h-54z" />
    <glyph glyph-name="thorn" unicode="&#xfe;" horiz-adv-x="281" 
d="M261 127q0 -70 -20 -106t-58 -36q-56 0 -76 72h-3v-267h-81v960h81v-257h3q23 62 74 62q38 0 59 -36t21 -107v-285zM147 54q33 0 33 62v307q0 33 -8 48t-25 15q-19 0 -31 -19t-12 -59v-277q0 -39 12 -58t31 -19z" />
    <glyph glyph-name="ydieresis" unicode="&#xff;" horiz-adv-x="271" 
d="M180 -40q-5 -35 -12 -59t-24 -38t-46.5 -20t-79.5 -6v69q24 0 38 3t20.5 12.5t8.5 27t2 46.5l-79 545h85l37 -358l4 -63h4l4 63l36 358h85zM38 691h77v-84h-77v84zM155 691h77v-84h-77v84z" />
    <glyph glyph-name="Amacron" unicode="&#x100;" horiz-adv-x="280" 
d="M146 505l-4 71h-4l-4 -71l-20 -265h52zM270 0h-85l-13 171h-64l-13 -171h-85l76 700h109zM230 779h-180v59h180v-59z" />
    <glyph glyph-name="amacron" unicode="&#x101;" horiz-adv-x="281" 
d="M195 0l-7 80h-3q-11 -41 -34 -68t-55 -27q-35 0 -55 36t-20 107v67q0 142 79 142q29 0 48.5 -18.5t28.5 -50.5h3v156q0 33 -9 47.5t-29 14.5t-29 -14.5t-9 -47.5v-52h-81v41q0 72 30.5 107t88.5 35q57 0 88 -35t31 -107v-413h-66zM133 54q21 0 34 26t13 77v49
q0 29 -12 45.5t-32 16.5q-17 0 -25.5 -14.5t-8.5 -47.5v-89q0 -33 7.5 -48t23.5 -15zM231 619h-180v59h180v-59z" />
    <glyph glyph-name="Abreve" unicode="&#x102;" horiz-adv-x="280" 
d="M146 505l-4 71h-4l-4 -71l-20 -265h52zM270 0h-85l-13 171h-64l-13 -171h-85l76 700h109zM98 877q0 -32 9 -55t34 -23t33.5 23t8.5 55h50q0 -68 -21.5 -102.5t-70.5 -34.5q-50 0 -71.5 34.5t-21.5 102.5h50z" />
    <glyph glyph-name="abreve" unicode="&#x103;" horiz-adv-x="281" 
d="M195 0l-7 80h-3q-11 -41 -34 -68t-55 -27q-35 0 -55 36t-20 107v67q0 142 79 142q29 0 48.5 -18.5t28.5 -50.5h3v156q0 33 -9 47.5t-29 14.5t-29 -14.5t-9 -47.5v-52h-81v41q0 72 30.5 107t88.5 35q57 0 88 -35t31 -107v-413h-66zM133 54q21 0 34 26t13 77v49
q0 29 -12 45.5t-32 16.5q-17 0 -25.5 -14.5t-8.5 -47.5v-89q0 -33 7.5 -48t23.5 -15zM99 717q0 -32 9 -55t34 -23t33.5 23t8.5 55h50q0 -68 -21.5 -102.5t-70.5 -34.5q-50 0 -71.5 34.5t-21.5 102.5h50z" />
    <glyph glyph-name="Aogonek" unicode="&#x104;" horiz-adv-x="280" 
d="M146 505l-4 71h-4l-4 -71l-20 -265h52zM270 0h-85l-13 171h-64l-13 -171h-85l76 700h109zM269 -1q-34 -2 -54 -21t-20 -44q0 -19 12 -31.5t34 -12.5q8 0 16.5 2t18.5 5v-52q-31 -9 -58 -9q-43 0 -66 20.5t-23 51.5q0 19 9 36.5t27 31t44 22t60 9.5v-8z" />
    <glyph glyph-name="aogonek" unicode="&#x105;" horiz-adv-x="281" 
d="M195 0l-7 80h-3q-11 -41 -34 -68t-55 -27q-35 0 -55 36t-20 107v67q0 142 79 142q29 0 48.5 -18.5t28.5 -50.5h3v156q0 33 -9 47.5t-29 14.5t-29 -14.5t-9 -47.5v-52h-81v41q0 72 30.5 107t88.5 35q57 0 88 -35t31 -107v-413h-66zM133 54q21 0 34 26t13 77v49
q0 29 -12 45.5t-32 16.5q-17 0 -25.5 -14.5t-8.5 -47.5v-89q0 -33 7.5 -48t23.5 -15zM260 -1q-34 -2 -54 -21t-20 -44q0 -19 12 -31.5t34 -12.5q8 0 16.5 2t18.5 5v-52q-31 -9 -58 -9q-43 0 -66 20.5t-23 51.5q0 19 9 36.5t27 31t44 22t60 9.5v-8z" />
    <glyph glyph-name="Cacute" unicode="&#x106;" 
d="M188 584q0 62 -40 62t-40 -62v-467q0 -63 40 -63q21 0 30.5 15t9.5 48v144h85v-133q0 -73 -33 -108t-91 -35t-92 35t-34 108v445q0 73 33.5 107.5t91.5 34.5q59 0 92 -34.5t33 -107.5v-123h-85v134zM122 740l34 137h65l-45 -137h-54z" />
    <glyph glyph-name="cacute" unicode="&#x107;" horiz-adv-x="277" 
d="M177 424q0 34 -8.5 48.5t-28.5 14.5t-29.5 -15t-9.5 -48v-307q0 -33 9 -48t29 -15t29 15t9 48v97h81v-86q0 -72 -30.5 -107.5t-87.5 -35.5q-58 0 -89 35.5t-31 107.5v285q0 72 31 107.5t89 35.5q57 0 87.5 -35.5t30.5 -107.5v-76h-81v87zM113 580l34 137h65l-45 -137h-54
z" />
    <glyph glyph-name="Ccircumflex" unicode="&#x108;" 
d="M188 584q0 62 -40 62t-40 -62v-467q0 -63 40 -63q21 0 30.5 15t9.5 48v144h85v-133q0 -73 -33 -108t-91 -35t-92 35t-34 108v445q0 73 33.5 107.5t91.5 34.5q59 0 92 -34.5t33 -107.5v-123h-85v134zM74 740l42 137h65l42 -137h-50l-23 97h-3l-23 -97h-50z" />
    <glyph glyph-name="ccircumflex" unicode="&#x109;" horiz-adv-x="277" 
d="M177 424q0 34 -8.5 48.5t-28.5 14.5t-29.5 -15t-9.5 -48v-307q0 -33 9 -48t29 -15t29 15t9 48v97h81v-86q0 -72 -30.5 -107.5t-87.5 -35.5q-58 0 -89 35.5t-31 107.5v285q0 72 31 107.5t89 35.5q57 0 87.5 -35.5t30.5 -107.5v-76h-81v87zM65 580l42 137h65l42 -137h-50
l-23 97h-3l-23 -97h-50z" />
    <glyph glyph-name="Cdotaccent" unicode="&#x10a;" 
d="M188 584q0 62 -40 62t-40 -62v-467q0 -63 40 -63q21 0 30.5 15t9.5 48v144h85v-133q0 -73 -33 -108t-91 -35t-92 35t-34 108v445q0 73 33.5 107.5t91.5 34.5q59 0 92 -34.5t33 -107.5v-123h-85v134zM110 851h77v-84h-77v84z" />
    <glyph glyph-name="cdotaccent" unicode="&#x10b;" horiz-adv-x="277" 
d="M177 424q0 34 -8.5 48.5t-28.5 14.5t-29.5 -15t-9.5 -48v-307q0 -33 9 -48t29 -15t29 15t9 48v97h81v-86q0 -72 -30.5 -107.5t-87.5 -35.5q-58 0 -89 35.5t-31 107.5v285q0 72 31 107.5t89 35.5q57 0 87.5 -35.5t30.5 -107.5v-76h-81v87zM101 691h77v-84h-77v84z" />
    <glyph glyph-name="Ccaron" unicode="&#x10c;" 
d="M188 584q0 62 -40 62t-40 -62v-467q0 -63 40 -63q21 0 30.5 15t9.5 48v144h85v-133q0 -73 -33 -108t-91 -35t-92 35t-34 108v445q0 73 33.5 107.5t91.5 34.5q59 0 92 -34.5t33 -107.5v-123h-85v134zM223 877l-42 -137h-65l-42 137h50l23 -97h3l23 97h50z" />
    <glyph glyph-name="ccaron" unicode="&#x10d;" horiz-adv-x="277" 
d="M177 424q0 34 -8.5 48.5t-28.5 14.5t-29.5 -15t-9.5 -48v-307q0 -33 9 -48t29 -15t29 15t9 48v97h81v-86q0 -72 -30.5 -107.5t-87.5 -35.5q-58 0 -89 35.5t-31 107.5v285q0 72 31 107.5t89 35.5q57 0 87.5 -35.5t30.5 -107.5v-76h-81v87zM214 717l-42 -137h-65l-42 137
h50l23 -97h3l23 97h50z" />
    <glyph glyph-name="Dcaron" unicode="&#x10e;" horiz-adv-x="298" 
d="M275 143q0 -73 -35.5 -108t-98.5 -35h-116v700h115q63 0 99 -34.5t36 -107.5v-415zM190 569q0 33 -12 47.5t-38 14.5h-30v-562h30q26 0 38 15t12 48v437zM206 877l-42 -137h-65l-42 137h50l23 -97h3l23 97h50z" />
    <glyph glyph-name="dcaron" unicode="&#x10f;" horiz-adv-x="281" 
d="M20 413q0 142 79 142q55 0 75 -72h3v267h81v-750h-66l-8 58h-3q-23 -73 -81 -73q-38 0 -59 36t-21 107v285zM135 54q19 0 30.5 19t11.5 59v277q0 40 -12 58.5t-31 18.5q-17 0 -25 -14.5t-8 -47.5v-307q0 -33 8.5 -48t25.5 -15zM289 750h58l-38 -177h-35z" />
    <glyph glyph-name="Dcroat" unicode="&#x110;" horiz-adv-x="302" 
d="M279 143q0 -73 -35.5 -108t-98.5 -35h-116v700h115q63 0 99 -34.5t36 -107.5v-415zM194 569q0 33 -12 47.5t-38 14.5h-30v-562h30q26 0 38 15t12 48v437zM152 320h-150v57h150v-57z" />
    <glyph glyph-name="dcroat" unicode="&#x111;" horiz-adv-x="291" 
d="M20 413q0 142 79 142q55 0 75 -72h3v267h81v-750h-66l-8 58h-3q-23 -73 -81 -73q-38 0 -59 36t-21 107v285zM135 54q19 0 30.5 19t11.5 59v277q0 40 -12 58.5t-31 18.5q-17 0 -25 -14.5t-8 -47.5v-307q0 -33 8.5 -48t25.5 -15zM286 599h-175v57h175v-57z" />
    <glyph glyph-name="Emacron" unicode="&#x112;" horiz-adv-x="222" 
d="M201 631h-91v-236h85v-69h-85v-257h100v-69h-185v700h176v-69zM203 779h-180v59h180v-59z" />
    <glyph glyph-name="emacron" unicode="&#x113;" horiz-adv-x="278" 
d="M139 54q20 0 29 15t9 48v87h81v-76q0 -72 -30.5 -107.5t-87.5 -35.5q-58 0 -89 35.5t-31 107.5v285q0 72 31 107t89 35q57 0 87.5 -35t30.5 -107v-158h-157v-138q0 -33 9 -48t29 -15zM177 424q0 33 -8.5 47.5t-28.5 14.5t-29.5 -14.5t-9.5 -47.5v-110h76v110zM230 619
h-180v59h180v-59z" />
    <glyph glyph-name="Ebreve" unicode="&#x114;" horiz-adv-x="222" 
d="M201 631h-91v-236h85v-69h-85v-257h100v-69h-185v700h176v-69zM70 877q0 -32 9 -55t34 -23t33.5 23t8.5 55h50q0 -68 -21.5 -102.5t-70.5 -34.5q-50 0 -71.5 34.5t-21.5 102.5h50z" />
    <glyph glyph-name="ebreve" unicode="&#x115;" horiz-adv-x="278" 
d="M139 54q20 0 29 15t9 48v87h81v-76q0 -72 -30.5 -107.5t-87.5 -35.5q-58 0 -89 35.5t-31 107.5v285q0 72 31 107t89 35q57 0 87.5 -35t30.5 -107v-158h-157v-138q0 -33 9 -48t29 -15zM177 424q0 33 -8.5 47.5t-28.5 14.5t-29.5 -14.5t-9.5 -47.5v-110h76v110zM97 717
q0 -32 9 -55t34 -23t33.5 23t8.5 55h50q0 -68 -21.5 -102.5t-70.5 -34.5q-50 0 -71.5 34.5t-21.5 102.5h50z" />
    <glyph glyph-name="Edotaccent" unicode="&#x116;" horiz-adv-x="222" 
d="M201 631h-91v-236h85v-69h-85v-257h100v-69h-185v700h176v-69zM75 851h77v-84h-77v84z" />
    <glyph glyph-name="edotaccent" unicode="&#x117;" horiz-adv-x="278" 
d="M139 54q20 0 29 15t9 48v87h81v-76q0 -72 -30.5 -107.5t-87.5 -35.5q-58 0 -89 35.5t-31 107.5v285q0 72 31 107t89 35q57 0 87.5 -35t30.5 -107v-158h-157v-138q0 -33 9 -48t29 -15zM177 424q0 33 -8.5 47.5t-28.5 14.5t-29.5 -14.5t-9.5 -47.5v-110h76v110zM101 691h77
v-84h-77v84z" />
    <glyph glyph-name="Eogonek" unicode="&#x118;" horiz-adv-x="222" 
d="M201 631h-91v-236h85v-69h-85v-257h100v-69h-185v700h176v-69zM209 -1q-34 -2 -54 -21t-20 -44q0 -19 12 -31.5t34 -12.5q8 0 16.5 2t18.5 5v-52q-31 -9 -58 -9q-43 0 -66 20.5t-23 51.5q0 19 9 36.5t27 31t44 22t60 9.5v-8z" />
    <glyph glyph-name="eogonek" unicode="&#x119;" horiz-adv-x="278" 
d="M139 54q20 0 29 15t9 48v87h81v-76q0 -72 -30.5 -107.5t-87.5 -35.5q-58 0 -89 35.5t-31 107.5v285q0 72 31 107t89 35q57 0 87.5 -35t30.5 -107v-158h-157v-138q0 -33 9 -48t29 -15zM177 424q0 33 -8.5 47.5t-28.5 14.5t-29.5 -14.5t-9.5 -47.5v-110h76v110zM189 -4
q-21 -8 -33 -25t-12 -36t12 -31.5t34 -12.5q8 0 16.5 2t18.5 5v-52q-31 -9 -58 -9q-43 0 -66 20.5t-23 51.5q0 33 27.5 60t81.5 35z" />
    <glyph glyph-name="Ecaron" unicode="&#x11a;" horiz-adv-x="222" 
d="M201 631h-91v-236h85v-69h-85v-257h100v-69h-185v700h176v-69zM188 877l-42 -137h-65l-42 137h50l23 -97h3l23 97h50z" />
    <glyph glyph-name="ecaron" unicode="&#x11b;" horiz-adv-x="278" 
d="M139 54q20 0 29 15t9 48v87h81v-76q0 -72 -30.5 -107.5t-87.5 -35.5q-58 0 -89 35.5t-31 107.5v285q0 72 31 107t89 35q57 0 87.5 -35t30.5 -107v-158h-157v-138q0 -33 9 -48t29 -15zM177 424q0 33 -8.5 47.5t-28.5 14.5t-29.5 -14.5t-9.5 -47.5v-110h76v110zM214 717
l-42 -137h-65l-42 137h50l23 -97h3l23 97h50z" />
    <glyph glyph-name="Gcircumflex" unicode="&#x11c;" 
d="M188 584q0 33 -9.5 47.5t-30.5 14.5t-30.5 -14.5t-9.5 -47.5v-467q0 -63 38 -63q45 0 45 73v164h-52v69h135v-360h-77l-4 61h-3q-5 -33 -26.5 -54.5t-56.5 -21.5q-84 0 -84 143v445q0 73 33.5 107.5t91.5 34.5q59 0 92.5 -34.5t33.5 -107.5v-123h-86v134zM74 740l42 137
h65l42 -137h-50l-23 97h-3l-23 -97h-50z" />
    <glyph glyph-name="gcircumflex" unicode="&#x11d;" horiz-adv-x="276" 
d="M176 424q0 33 -8.5 47.5t-28.5 14.5t-29.5 -14.5t-9.5 -47.5v-237q0 -33 9 -48t29 -15t29 14.5t9 48.5v237zM124 -47q-36 0 -36 -28t36 -28h32q36 0 36 27q0 29 -36 29h-32zM257 198q0 -143 -118 -143h-28q-26 0 -26 -22q0 -21 25 -21h57q41 0 65.5 -21.5t24.5 -62.5
q0 -45 -30 -67.5t-87 -22.5h-11q-52 0 -81 17.5t-29 47.5q0 41 70 48v3q-32 2 -49 15.5t-17 37.5q0 23 15.5 38.5t42.5 19.5l1 3q-63 28 -63 130v215q0 65 25 100.5t73 40.5q20 3 27.5 10t7.5 21v40h70v-25q0 -19 -10 -31t-45 -14v-3q90 -15 90 -139v-215zM65 650l42 137h65
l42 -137h-50l-23 97h-3l-23 -97h-50z" />
    <glyph glyph-name="Gbreve" unicode="&#x11e;" 
d="M188 584q0 33 -9.5 47.5t-30.5 14.5t-30.5 -14.5t-9.5 -47.5v-467q0 -63 38 -63q45 0 45 73v164h-52v69h135v-360h-77l-4 61h-3q-5 -33 -26.5 -54.5t-56.5 -21.5q-84 0 -84 143v445q0 73 33.5 107.5t91.5 34.5q59 0 92.5 -34.5t33.5 -107.5v-123h-86v134zM106 877
q0 -32 9 -55t34 -23t33.5 23t8.5 55h50q0 -68 -21.5 -102.5t-70.5 -34.5q-50 0 -71.5 34.5t-21.5 102.5h50z" />
    <glyph glyph-name="gbreve" unicode="&#x11f;" horiz-adv-x="276" 
d="M176 424q0 33 -8.5 47.5t-28.5 14.5t-29.5 -14.5t-9.5 -47.5v-237q0 -33 9 -48t29 -15t29 14.5t9 48.5v237zM124 -47q-36 0 -36 -28t36 -28h32q36 0 36 27q0 29 -36 29h-32zM257 198q0 -143 -118 -143h-28q-26 0 -26 -22q0 -21 25 -21h57q41 0 65.5 -21.5t24.5 -62.5
q0 -45 -30 -67.5t-87 -22.5h-11q-52 0 -81 17.5t-29 47.5q0 41 70 48v3q-32 2 -49 15.5t-17 37.5q0 23 15.5 38.5t42.5 19.5l1 3q-63 28 -63 130v215q0 65 25 100.5t73 40.5q20 3 27.5 10t7.5 21v40h70v-25q0 -19 -10 -31t-45 -14v-3q90 -15 90 -139v-215zM97 787
q0 -32 9 -55t34 -23t33.5 23t8.5 55h50q0 -68 -21.5 -102.5t-70.5 -34.5q-50 0 -71.5 34.5t-21.5 102.5h50z" />
    <glyph glyph-name="Gdotaccent" unicode="&#x120;" 
d="M188 584q0 33 -9.5 47.5t-30.5 14.5t-30.5 -14.5t-9.5 -47.5v-467q0 -63 38 -63q45 0 45 73v164h-52v69h135v-360h-77l-4 61h-3q-5 -33 -26.5 -54.5t-56.5 -21.5q-84 0 -84 143v445q0 73 33.5 107.5t91.5 34.5q59 0 92.5 -34.5t33.5 -107.5v-123h-86v134zM110 851h77v-84
h-77v84z" />
    <glyph glyph-name="gdotaccent" unicode="&#x121;" horiz-adv-x="276" 
d="M176 424q0 33 -8.5 47.5t-28.5 14.5t-29.5 -14.5t-9.5 -47.5v-237q0 -33 9 -48t29 -15t29 14.5t9 48.5v237zM124 -47q-36 0 -36 -28t36 -28h32q36 0 36 27q0 29 -36 29h-32zM257 198q0 -143 -118 -143h-28q-26 0 -26 -22q0 -21 25 -21h57q41 0 65.5 -21.5t24.5 -62.5
q0 -45 -30 -67.5t-87 -22.5h-11q-52 0 -81 17.5t-29 47.5q0 41 70 48v3q-32 2 -49 15.5t-17 37.5q0 23 15.5 38.5t42.5 19.5l1 3q-63 28 -63 130v215q0 65 25 100.5t73 40.5q20 3 27.5 10t7.5 21v40h70v-25q0 -19 -10 -31t-45 -14v-3q90 -15 90 -139v-215zM101 761h77v-84
h-77v84z" />
    <glyph glyph-name="uni0122" unicode="&#x122;" 
d="M188 584q0 33 -9.5 47.5t-30.5 14.5t-30.5 -14.5t-9.5 -47.5v-467q0 -63 38 -63q45 0 45 73v164h-52v69h135v-360h-77l-4 61h-3q-5 -33 -26.5 -54.5t-56.5 -21.5q-84 0 -84 143v445q0 73 33.5 107.5t91.5 34.5q59 0 92.5 -34.5t33.5 -107.5v-123h-86v134zM179 -114
q0 -60 -61 -60v28q28 0 28 33v14h-28v64h61v-79z" />
    <glyph glyph-name="uni0123" unicode="&#x123;" horiz-adv-x="276" 
d="M176 424q0 33 -8.5 47.5t-28.5 14.5t-29.5 -14.5t-9.5 -47.5v-237q0 -33 9 -48t29 -15t29 14.5t9 48.5v237zM124 -47q-36 0 -36 -28t36 -28h32q36 0 36 27q0 29 -36 29h-32zM257 198q0 -143 -118 -143h-28q-26 0 -26 -22q0 -21 25 -21h57q41 0 65.5 -21.5t24.5 -62.5
q0 -45 -30 -67.5t-87 -22.5h-11q-52 0 -81 17.5t-29 47.5q0 41 70 48v3q-32 2 -49 15.5t-17 37.5q0 23 15.5 38.5t42.5 19.5l1 3q-63 28 -63 130v215q0 65 25 100.5t73 40.5q20 3 27.5 10t7.5 21v40h70v-25q0 -19 -10 -31t-45 -14v-3q90 -15 90 -139v-215zM109 732
q0 60 61 60v-28q-28 0 -28 -33v-14h28v-64h-61v79z" />
    <glyph glyph-name="Hcircumflex" unicode="&#x124;" horiz-adv-x="295" 
d="M270 0h-85v323h-75v-323h-85v700h85v-303h75v303h85v-700zM73 740l42 137h65l42 -137h-50l-23 97h-3l-23 -97h-50z" />
    <glyph glyph-name="hcircumflex" unicode="&#x125;" horiz-adv-x="284" 
d="M180 0v423q0 33 -8 48t-25 15q-19 0 -31 -19t-12 -59v-408h-81v750h81v-257h3q23 62 74 62q38 0 59 -36t21 -107v-412h-81zM-13 780l42 137h65l42 -137h-50l-23 97h-3l-23 -97h-50z" />
    <glyph glyph-name="Hbar" unicode="&#x126;" horiz-adv-x="305" 
d="M275 0h-85v323h-75v-323h-85v700h85v-303h75v303h85v-700zM296 512h-288v57h288v-57z" />
    <glyph glyph-name="hbar" unicode="&#x127;" horiz-adv-x="295" 
d="M191 0v423q0 33 -8 48t-25 15q-19 0 -31 -19t-12 -59v-408h-81v750h81v-257h3q23 62 74 62q38 0 59 -36t21 -107v-412h-81zM178 599h-175v57h175v-57z" />
    <glyph glyph-name="Itilde" unicode="&#x128;" horiz-adv-x="155" 
d="M120 0h-85v700h85v-700zM168 847q0 -107 -47 -107q-26 0 -49 41l-4 6q-16 29 -30 29q-19 0 -19 -47v-26h-30v25q0 54 12 82t36 28q14 0 24.5 -9.5t21.5 -28.5l3 -6q19 -31 34 -31q19 0 19 44v28h29v-28z" />
    <glyph glyph-name="itilde" unicode="&#x129;" horiz-adv-x="127" 
d="M23 540h81v-540h-81v540zM153 687q0 -107 -47 -107q-26 0 -49 41l-4 6q-16 29 -30 29q-19 0 -19 -47v-26h-30v25q0 54 12 82t36 28q14 0 24.5 -9.5t21.5 -28.5l3 -6q19 -31 34 -31q19 0 19 44v28h29v-28z" />
    <glyph glyph-name="Imacron" unicode="&#x12a;" horiz-adv-x="155" 
d="M120 0h-85v700h85v-700zM168 779h-180v59h180v-59z" />
    <glyph glyph-name="imacron" unicode="&#x12b;" horiz-adv-x="127" 
d="M23 540h81v-540h-81v540zM153 619h-180v59h180v-59z" />
    <glyph glyph-name="Ibreve" unicode="&#x12c;" horiz-adv-x="155" 
d="M120 0h-85v700h85v-700zM35 877q0 -32 9 -55t34 -23t33.5 23t8.5 55h50q0 -68 -21.5 -102.5t-70.5 -34.5q-50 0 -71.5 34.5t-21.5 102.5h50z" />
    <glyph glyph-name="ibreve" unicode="&#x12d;" horiz-adv-x="127" 
d="M23 540h81v-540h-81v540zM21 717q0 -32 9 -55t34 -23t33.5 23t8.5 55h50q0 -68 -21.5 -102.5t-70.5 -34.5q-50 0 -71.5 34.5t-21.5 102.5h50z" />
    <glyph glyph-name="Iogonek" unicode="&#x12e;" horiz-adv-x="155" 
d="M120 0h-85v700h85v-700zM119 -1q-34 -2 -54 -21t-20 -44q0 -19 12 -31.5t34 -12.5q8 0 16.5 2t18.5 5v-52q-31 -9 -58 -9q-43 0 -66 20.5t-23 51.5q0 19 9 36.5t27 31t44 22t60 9.5v-8z" />
    <glyph glyph-name="iogonek" unicode="&#x12f;" horiz-adv-x="127" 
d="M23 540h81v-540h-81v540zM23 680h81v-110h-81v110zM104 -1q-34 -2 -54 -21t-20 -44q0 -19 12 -31.5t34 -12.5q8 0 16.5 2t18.5 5v-52q-31 -9 -58 -9q-43 0 -66 20.5t-23 51.5q0 19 9 36.5t27 31t44 22t60 9.5v-8z" />
    <glyph glyph-name="Idotaccent" unicode="&#x130;" horiz-adv-x="155" 
d="M120 0h-85v700h85v-700zM40 851h77v-84h-77v84z" />
    <glyph glyph-name="dotlessi" unicode="&#x131;" horiz-adv-x="127" 
d="M23 540h81v-540h-81v540z" />
    <glyph glyph-name="IJ" unicode="&#x132;" horiz-adv-x="443" 
d="M120 0h-85v700h85v-700zM420 128q0 -73 -33.5 -108t-90.5 -35q-59 0 -92.5 35t-33.5 108v103h85v-114q0 -33 10 -48t30 -15q40 0 40 63v583h85v-572z" />
    <glyph glyph-name="ij" unicode="&#x133;" horiz-adv-x="255" 
d="M23 540h81v-540h-81v540zM23 680h81v-110h-81v110zM232 -60q0 -35 -4.5 -55.5t-18 -31t-38.5 -14t-65 -3.5v69q16 0 25.5 1t13.5 5.5t5 13.5t1 24v591h81v-600zM232 570h-81v110h81v-110z" />
    <glyph glyph-name="Jcircumflex" unicode="&#x134;" horiz-adv-x="288" 
d="M265 128q0 -73 -33.5 -108t-90.5 -35q-59 0 -92.5 35t-33.5 108v103h85v-114q0 -33 10 -48t30 -15q40 0 40 63v583h85v-572zM149 740l42 137h65l42 -137h-50l-23 97h-3l-23 -97h-50z" />
    <glyph glyph-name="jcircumflex" unicode="&#x135;" horiz-adv-x="128" 
d="M105 -60q0 -35 -4.5 -55.5t-18 -31t-38.5 -14t-65 -3.5v69q16 0 25.5 1t13.5 5.5t5 13.5t1 24v591h81v-600zM-10 580l42 137h65l42 -137h-50l-23 97h-3l-23 -97h-50z" />
    <glyph glyph-name="uni0136" unicode="&#x136;" horiz-adv-x="298" 
d="M194 414v-2l91 -412h-85l-68 331h-3l-19 -56v-275h-85v700h85v-202l-8 -124h3l87 326h86zM186 -114q0 -60 -61 -60v28q28 0 28 33v14h-28v64h61v-79z" />
    <glyph glyph-name="uni0137" unicode="&#x137;" horiz-adv-x="289" 
d="M188 319v-2l91 -317h-85l-68 255h-3l-19 -43v-212h-81v750h81v-366l-8 -95h3l87 251h86zM179 -114q0 -60 -61 -60v28q28 0 28 33v14h-28v64h61v-79z" />
    <glyph glyph-name="kgreenlandic" unicode="&#x138;" horiz-adv-x="289" 
d="M188 319v-2l91 -317h-85l-68 255h-3l-19 -43v-212h-81v540h81v-156l-8 -95h3l87 251h86z" />
    <glyph glyph-name="Lacute" unicode="&#x139;" horiz-adv-x="215" 
d="M110 700v-631h90v-69h-175v700h85zM42 740l34 137h65l-45 -137h-54z" />
    <glyph glyph-name="lacute" unicode="&#x13a;" horiz-adv-x="127" 
d="M23 750h81v-750h-81v750zM37 780l34 137h65l-45 -137h-54z" />
    <glyph glyph-name="uni013B" unicode="&#x13b;" horiz-adv-x="215" 
d="M110 700v-631h90v-69h-175v700h85zM143 -114q0 -60 -61 -60v28q28 0 28 33v14h-28v64h61v-79z" />
    <glyph glyph-name="uni013C" unicode="&#x13c;" horiz-adv-x="127" 
d="M23 750h81v-750h-81v750zM95 -104q0 -60 -61 -60v28q28 0 28 33v14h-28v64h61v-79z" />
    <glyph glyph-name="Lcaron" unicode="&#x13d;" horiz-adv-x="215" 
d="M110 700v-631h90v-69h-175v700h85zM161 700h58l-38 -177h-35z" />
    <glyph glyph-name="lcaron" unicode="&#x13e;" horiz-adv-x="127" 
d="M23 750h81v-750h-81v750zM145 750h58l-38 -177h-35z" />
    <glyph glyph-name="Ldot" unicode="&#x13f;" horiz-adv-x="247" 
d="M110 700v-631h90v-69h-175v700h85zM147 392h77v-84h-77v84z" />
    <glyph glyph-name="ldot" unicode="&#x140;" horiz-adv-x="218" 
d="M23 750h81v-750h-81v750zM141 415h77v-84h-77v84z" />
    <glyph glyph-name="Lslash" unicode="&#x141;" horiz-adv-x="236" 
d="M131 700v-631h90v-69h-175v700h85zM194 362l-177 -75l-21 53l177 75z" />
    <glyph glyph-name="lslash" unicode="&#x142;" horiz-adv-x="174" 
d="M46 750h81v-750h-81v750zM171 378l-146 -63l-22 53l147 63z" />
    <glyph glyph-name="Nacute" unicode="&#x143;" horiz-adv-x="315" 
d="M290 0h-103l-97 558l-4 -1l5 -72l19 -485h-85v700h103l84 -473l12 -72l4 1l-5 72l-18 472h85v-700zM140 740l34 137h65l-45 -137h-54z" />
    <glyph glyph-name="nacute" unicode="&#x144;" horiz-adv-x="284" 
d="M180 0v423q0 33 -8 48t-25 15q-19 0 -31 -19t-12 -59v-408h-81v540h66l9 -58h3q11 35 32 54t48 19q38 0 59 -36t21 -107v-412h-81zM120 580l34 137h65l-45 -137h-54z" />
    <glyph glyph-name="uni0145" unicode="&#x145;" horiz-adv-x="315" 
d="M290 0h-103l-97 558l-4 -1l5 -72l19 -485h-85v700h103l84 -473l12 -72l4 1l-5 72l-18 472h85v-700zM179 -114q0 -60 -61 -60v28q28 0 28 33v14h-28v64h61v-79z" />
    <glyph glyph-name="uni0146" unicode="&#x146;" horiz-adv-x="284" 
d="M180 0v423q0 33 -8 48t-25 15q-19 0 -31 -19t-12 -59v-408h-81v540h66l9 -58h3q11 35 32 54t48 19q38 0 59 -36t21 -107v-412h-81zM173 -114q0 -60 -61 -60v28q28 0 28 33v14h-28v64h61v-79z" />
    <glyph glyph-name="Ncaron" unicode="&#x147;" horiz-adv-x="315" 
d="M290 0h-103l-97 558l-4 -1l5 -72l19 -485h-85v700h103l84 -473l12 -72l4 1l-5 72l-18 472h85v-700zM241 877l-42 -137h-65l-42 137h50l23 -97h3l23 97h50z" />
    <glyph glyph-name="ncaron" unicode="&#x148;" horiz-adv-x="284" 
d="M180 0v423q0 33 -8 48t-25 15q-19 0 -31 -19t-12 -59v-408h-81v540h66l9 -58h3q11 35 32 54t48 19q38 0 59 -36t21 -107v-412h-81zM221 717l-42 -137h-65l-42 137h50l23 -97h3l23 97h50z" />
    <glyph glyph-name="napostrophe" unicode="&#x149;" horiz-adv-x="534" 
d="M30 700h474v-700h-474v700zM292 350l162 -267v534zM242 350l-162 267v-534zM110 650l157 -259l157 259h-314zM267 309l-157 -259h314z" />
    <glyph glyph-name="Eng" unicode="&#x14a;" horiz-adv-x="315" 
d="M291 -28q0 -35 -5.5 -55.5t-20 -31t-41 -14t-68.5 -3.5v69q13 0 20 1t10.5 5.5t4 13t0.5 23.5v20l-88 486l-12 72l-4 -1l5 -72l19 -485h-85v700h103l97 -545l4 1l-6 72l-18 472h85v-728z" />
    <glyph glyph-name="eng" unicode="&#x14b;" horiz-adv-x="284" 
d="M136 -63q17 0 25.5 1t13 5.5t5 13.5t0.5 24v442q0 33 -8 48t-25 15q-19 0 -31 -19t-12 -59v-408h-81v540h66l9 -58h3q11 35 32 54t48 19q38 0 59 -36t21 -107v-440q0 -35 -4.5 -55.5t-18 -31t-38 -14t-64.5 -3.5v69z" />
    <glyph glyph-name="Omacron" unicode="&#x14c;" 
d="M273 128q0 -72 -32 -107.5t-92 -35.5t-93 36t-33 107v445q0 71 33 106.5t93 35.5t92 -35t32 -107v-445zM188 584q0 33 -9.5 47.5t-30.5 14.5t-30.5 -14.5t-9.5 -47.5v-467q0 -63 40 -63q21 0 30.5 15t9.5 48v467zM239 779h-180v59h180v-59z" />
    <glyph glyph-name="omacron" unicode="&#x14d;" horiz-adv-x="278" 
d="M258 128q0 -72 -30.5 -107.5t-87.5 -35.5q-58 0 -89 35.5t-31 107.5v285q0 72 31 107t89 35q57 0 87.5 -35t30.5 -107v-285zM177 424q0 33 -8.5 47.5t-28.5 14.5t-29.5 -14.5t-9.5 -47.5v-307q0 -33 9 -48t29 -15t29 15t9 48v307zM230 619h-180v59h180v-59z" />
    <glyph glyph-name="Obreve" unicode="&#x14e;" 
d="M273 128q0 -72 -32 -107.5t-92 -35.5t-93 36t-33 107v445q0 71 33 106.5t93 35.5t92 -35t32 -107v-445zM188 584q0 33 -9.5 47.5t-30.5 14.5t-30.5 -14.5t-9.5 -47.5v-467q0 -63 40 -63q21 0 30.5 15t9.5 48v467zM106 877q0 -32 9 -55t34 -23t33.5 23t8.5 55h50
q0 -68 -21.5 -102.5t-70.5 -34.5q-50 0 -71.5 34.5t-21.5 102.5h50z" />
    <glyph glyph-name="obreve" unicode="&#x14f;" horiz-adv-x="278" 
d="M258 128q0 -72 -30.5 -107.5t-87.5 -35.5q-58 0 -89 35.5t-31 107.5v285q0 72 31 107t89 35q57 0 87.5 -35t30.5 -107v-285zM177 424q0 33 -8.5 47.5t-28.5 14.5t-29.5 -14.5t-9.5 -47.5v-307q0 -33 9 -48t29 -15t29 15t9 48v307zM97 717q0 -32 9 -55t34 -23t33.5 23
t8.5 55h50q0 -68 -21.5 -102.5t-70.5 -34.5q-50 0 -71.5 34.5t-21.5 102.5h50z" />
    <glyph glyph-name="Ohungarumlaut" unicode="&#x150;" 
d="M273 128q0 -72 -32 -107.5t-92 -35.5t-93 36t-33 107v445q0 71 33 106.5t93 35.5t92 -35t32 -107v-445zM188 584q0 33 -9.5 47.5t-30.5 14.5t-30.5 -14.5t-9.5 -47.5v-467q0 -63 40 -63q21 0 30.5 15t9.5 48v467zM75 740l31 137h55l-40 -137h-46zM165 740l31 137h55
l-40 -137h-46z" />
    <glyph glyph-name="ohungarumlaut" unicode="&#x151;" horiz-adv-x="278" 
d="M258 128q0 -72 -30.5 -107.5t-87.5 -35.5q-58 0 -89 35.5t-31 107.5v285q0 72 31 107t89 35q57 0 87.5 -35t30.5 -107v-285zM177 424q0 33 -8.5 47.5t-28.5 14.5t-29.5 -14.5t-9.5 -47.5v-307q0 -33 9 -48t29 -15t29 15t9 48v307zM66 580l31 137h55l-40 -137h-46z
M156 580l31 137h55l-40 -137h-46z" />
    <glyph glyph-name="OE" unicode="&#x152;" horiz-adv-x="368" 
d="M171 631h-22q-22 0 -31.5 -14.5t-9.5 -47.5v-437q0 -63 41 -63h22v562zM347 700v-69h-91v-247h85v-69h-85v-246h100v-69h-207q-60 0 -93 36t-33 107v415q0 71 33 106.5t93 35.5h198z" />
    <glyph glyph-name="oe" unicode="&#x153;" horiz-adv-x="435" 
d="M258 117q0 -33 9 -48t29 -15t29 15t9 48v87h81v-76q0 -72 -30.5 -107.5t-87.5 -35.5q-26 0 -46 10t-32 36h-2q-13 -26 -32 -36t-45 -10q-58 0 -89 35.5t-31 107.5v285q0 72 31 107t89 35q26 0 45.5 -9.5t31.5 -35.5h2q13 26 32.5 35.5t45.5 9.5q57 0 87.5 -35t30.5 -107
v-158h-157v-138zM334 424q0 33 -8.5 47.5t-28.5 14.5t-29.5 -14.5t-9.5 -47.5v-110h76v110zM177 424q0 33 -8.5 47.5t-28.5 14.5t-29.5 -14.5t-9.5 -47.5v-307q0 -33 9 -48t29 -15t29 15t9 48v307z" />
    <glyph glyph-name="Racute" unicode="&#x154;" 
d="M140 700q63 0 99 -37t36 -110v-104q0 -93 -67 -116v-3q67 -23 67 -117v-112q0 -31 1.5 -50.5t6.5 -46.5v-4h-85q-2 14 -3.5 26t-2.5 23.5t-1.5 24t-0.5 27.5v133q0 33 -12 47.5t-38 14.5h-30v-296h-85v700h115zM110 365h30q26 0 38 15t12 48v141q0 33 -12 47.5t-38 14.5
h-30v-266zM119 740l34 137h65l-45 -137h-54z" />
    <glyph glyph-name="racute" unicode="&#x155;" horiz-adv-x="208" 
d="M94 540l5 -88h2q1 32 9.5 50t22 26.5t30.5 10t35 1.5v-84q-55 0 -74.5 -23.5t-19.5 -66.5v-366h-81v540h71zM83 580l34 137h65l-45 -137h-54z" />
    <glyph glyph-name="uni0156" unicode="&#x156;" 
d="M140 700q63 0 99 -37t36 -110v-104q0 -93 -67 -116v-3q67 -23 67 -117v-112q0 -31 1.5 -50.5t6.5 -46.5v-4h-85q-2 14 -3.5 26t-2.5 23.5t-1.5 24t-0.5 27.5v133q0 33 -12 47.5t-38 14.5h-30v-296h-85v700h115zM110 365h30q26 0 38 15t12 48v141q0 33 -12 47.5t-38 14.5
h-30v-266zM185 -114q0 -60 -61 -60v28q28 0 28 33v14h-28v64h61v-79z" />
    <glyph glyph-name="uni0157" unicode="&#x157;" horiz-adv-x="208" 
d="M94 540l5 -88h2q1 32 9.5 50t22 26.5t30.5 10t35 1.5v-84q-55 0 -74.5 -23.5t-19.5 -66.5v-366h-81v540h71zM95 -114q0 -60 -61 -60v28q28 0 28 33v14h-28v64h61v-79z" />
    <glyph glyph-name="Rcaron" unicode="&#x158;" 
d="M140 700q63 0 99 -37t36 -110v-104q0 -93 -67 -116v-3q67 -23 67 -117v-112q0 -31 1.5 -50.5t6.5 -46.5v-4h-85q-2 14 -3.5 26t-2.5 23.5t-1.5 24t-0.5 27.5v133q0 33 -12 47.5t-38 14.5h-30v-296h-85v700h115zM110 365h30q26 0 38 15t12 48v141q0 33 -12 47.5t-38 14.5
h-30v-266zM220 877l-42 -137h-65l-42 137h50l23 -97h3l23 97h50z" />
    <glyph glyph-name="rcaron" unicode="&#x159;" horiz-adv-x="208" 
d="M94 540l5 -88h2q1 32 9.5 50t22 26.5t30.5 10t35 1.5v-84q-55 0 -74.5 -23.5t-19.5 -66.5v-366h-81v540h71zM184 717l-42 -137h-65l-42 137h50l23 -97h3l23 97h50z" />
    <glyph glyph-name="Sacute" unicode="&#x15a;" horiz-adv-x="299" 
d="M188 490v94q0 35 -9.5 48.5t-28.5 13.5q-20 0 -29.5 -13.5t-9.5 -48.5v-56q0 -38 19.5 -70.5t46.5 -62.5q17 -19 34.5 -40t32 -45t23.5 -51.5t9 -60.5v-70q0 -73 -34 -108t-93 -35t-92.5 34.5t-33.5 108.5v103h85v-114q0 -35 11 -49t31 -14t30.5 14t10.5 49v76
q0 42 -25.5 78t-55.5 71q-16 18 -31 37t-27 41t-19 47.5t-7 55.5v50q0 74 33 108t91 34t90.5 -34.5t32.5 -107.5v-83h-85zM123 740l34 137h65l-45 -137h-54z" />
    <glyph glyph-name="sacute" unicode="&#x15b;" horiz-adv-x="278" 
d="M175 381v70q0 27 -10.5 37.5t-24.5 10.5q-16 0 -26 -10.5t-10 -38.5v-43q0 -28 20 -53.5t45 -48.5q16 -15 32 -31.5t29 -35t21 -40.5t8 -48v-44q0 -57 -33 -89t-87 -32t-86.5 32.5t-32.5 89.5v73h81v-90q0 -28 10.5 -38.5t27.5 -10.5t28 10.5t11 38.5v60q0 15 -7 29.5
t-18 29t-25.5 29t-28.5 27.5q-30 28 -53 62t-23 79v28q0 57 31.5 89t84.5 32q54 0 85.5 -32t31.5 -89v-53h-81zM113 580l34 137h65l-45 -137h-54z" />
    <glyph glyph-name="Scircumflex" unicode="&#x15c;" horiz-adv-x="299" 
d="M188 490v94q0 35 -9.5 48.5t-28.5 13.5q-20 0 -29.5 -13.5t-9.5 -48.5v-56q0 -38 19.5 -70.5t46.5 -62.5q17 -19 34.5 -40t32 -45t23.5 -51.5t9 -60.5v-70q0 -73 -34 -108t-93 -35t-92.5 34.5t-33.5 108.5v103h85v-114q0 -35 11 -49t31 -14t30.5 14t10.5 49v76
q0 42 -25.5 78t-55.5 71q-16 18 -31 37t-27 41t-19 47.5t-7 55.5v50q0 74 33 108t91 34t90.5 -34.5t32.5 -107.5v-83h-85zM75 740l42 137h65l42 -137h-50l-23 97h-3l-23 -97h-50z" />
    <glyph glyph-name="scircumflex" unicode="&#x15d;" horiz-adv-x="278" 
d="M175 381v70q0 27 -10.5 37.5t-24.5 10.5q-16 0 -26 -10.5t-10 -38.5v-43q0 -28 20 -53.5t45 -48.5q16 -15 32 -31.5t29 -35t21 -40.5t8 -48v-44q0 -57 -33 -89t-87 -32t-86.5 32.5t-32.5 89.5v73h81v-90q0 -28 10.5 -38.5t27.5 -10.5t28 10.5t11 38.5v60q0 15 -7 29.5
t-18 29t-25.5 29t-28.5 27.5q-30 28 -53 62t-23 79v28q0 57 31.5 89t84.5 32q54 0 85.5 -32t31.5 -89v-53h-81zM65 580l42 137h65l42 -137h-50l-23 97h-3l-23 -97h-50z" />
    <glyph glyph-name="Scedilla" unicode="&#x15e;" horiz-adv-x="299" 
d="M188 490v94q0 35 -9.5 48.5t-28.5 13.5q-20 0 -29.5 -13.5t-9.5 -48.5v-56q0 -38 19.5 -70.5t46.5 -62.5q17 -19 34.5 -40t32 -45t23.5 -51.5t9 -60.5v-70q0 -73 -34 -108t-93 -35t-92.5 34.5t-33.5 108.5v103h85v-114q0 -35 11 -49t31 -14t30.5 14t10.5 49v76
q0 42 -25.5 78t-55.5 71q-16 18 -31 37t-27 41t-19 47.5t-7 55.5v50q0 74 33 108t91 34t90.5 -34.5t32.5 -107.5v-83h-85zM171 -3l-4 -43q39 0 63.5 -18.5t24.5 -48.5q0 -32 -28.5 -53t-70.5 -21q-13 0 -28 2t-30 5v41q8 -3 15.5 -4t15.5 -1q23 0 39 10.5t16 25.5
q0 16 -17.5 24.5t-47.5 8.5l11 72h41z" />
    <glyph glyph-name="scedilla" unicode="&#x15f;" horiz-adv-x="278" 
d="M175 381v70q0 27 -10.5 37.5t-24.5 10.5q-16 0 -26 -10.5t-10 -38.5v-43q0 -28 20 -53.5t45 -48.5q16 -15 32 -31.5t29 -35t21 -40.5t8 -48v-44q0 -57 -33 -89t-87 -32t-86.5 32.5t-32.5 89.5v73h81v-90q0 -28 10.5 -38.5t27.5 -10.5t28 10.5t11 38.5v60q0 15 -7 29.5
t-18 29t-25.5 29t-28.5 27.5q-30 28 -53 62t-23 79v28q0 57 31.5 89t84.5 32q54 0 85.5 -32t31.5 -89v-53h-81zM161 -3l-4 -43q39 0 63.5 -18.5t24.5 -48.5q0 -32 -28.5 -53t-70.5 -21q-13 0 -28 2t-30 5v41q8 -3 15.5 -4t15.5 -1q23 0 39 10.5t16 25.5q0 16 -17.5 24.5
t-47.5 8.5l11 72h41z" />
    <glyph glyph-name="Scaron" unicode="&#x160;" horiz-adv-x="299" 
d="M188 490v94q0 35 -9.5 48.5t-28.5 13.5q-20 0 -29.5 -13.5t-9.5 -48.5v-56q0 -38 19.5 -70.5t46.5 -62.5q17 -19 34.5 -40t32 -45t23.5 -51.5t9 -60.5v-70q0 -73 -34 -108t-93 -35t-92.5 34.5t-33.5 108.5v103h85v-114q0 -35 11 -49t31 -14t30.5 14t10.5 49v76
q0 42 -25.5 78t-55.5 71q-16 18 -31 37t-27 41t-19 47.5t-7 55.5v50q0 74 33 108t91 34t90.5 -34.5t32.5 -107.5v-83h-85zM224 877l-42 -137h-65l-42 137h50l23 -97h3l23 97h50z" />
    <glyph glyph-name="scaron" unicode="&#x161;" horiz-adv-x="278" 
d="M175 381v70q0 27 -10.5 37.5t-24.5 10.5q-16 0 -26 -10.5t-10 -38.5v-43q0 -28 20 -53.5t45 -48.5q16 -15 32 -31.5t29 -35t21 -40.5t8 -48v-44q0 -57 -33 -89t-87 -32t-86.5 32.5t-32.5 89.5v73h81v-90q0 -28 10.5 -38.5t27.5 -10.5t28 10.5t11 38.5v60q0 15 -7 29.5
t-18 29t-25.5 29t-28.5 27.5q-30 28 -53 62t-23 79v28q0 57 31.5 89t84.5 32q54 0 85.5 -32t31.5 -89v-53h-81zM214 717l-42 -137h-65l-42 137h50l23 -97h3l23 97h50z" />
    <glyph glyph-name="uni0162" unicode="&#x162;" horiz-adv-x="275" 
d="M260 631h-80v-631h-85v631h-80v69h245v-69zM158 5l-4 -43q39 0 63.5 -18.5t24.5 -48.5q0 -32 -28.5 -53t-70.5 -21q-13 0 -28 2t-30 5v41q8 -3 15.5 -4t15.5 -1q23 0 39 10.5t16 25.5q0 16 -17.5 24.5t-47.5 8.5l11 72h41z" />
    <glyph glyph-name="uni0163" unicode="&#x163;" horiz-adv-x="172" 
d="M116 620v-80h52v-69h-52v-358q0 -15 2 -24t8 -13.5t16 -5.5t26 -1v-69q-39 0 -65 3.5t-41 14.5t-21 31.5t-6 55.5v366h-30v69h30v80h81zM122 12l-4 -43q39 0 63.5 -18.5t24.5 -48.5q0 -32 -28.5 -53t-70.5 -21q-13 0 -28 2t-30 5v41q8 -3 15.5 -4t15.5 -1q23 0 39 10.5
t16 25.5q0 16 -17.5 24.5t-47.5 8.5l11 72h41z" />
    <glyph glyph-name="Tcaron" unicode="&#x164;" horiz-adv-x="275" 
d="M260 631h-80v-631h-85v631h-80v69h245v-69zM212 877l-42 -137h-65l-42 137h50l23 -97h3l23 97h50z" />
    <glyph glyph-name="tcaron" unicode="&#x165;" horiz-adv-x="172" 
d="M116 620v-80h52v-69h-52v-358q0 -15 2 -24t8 -13.5t16 -5.5t26 -1v-69q-39 0 -65 3.5t-41 14.5t-21 31.5t-6 55.5v366h-30v69h30v80h81zM154 750h58l-38 -177h-35z" />
    <glyph glyph-name="Tbar" unicode="&#x166;" horiz-adv-x="275" 
d="M260 631h-80v-631h-85v631h-80v69h245v-69zM225 287h-175v57h175v-57z" />
    <glyph glyph-name="tbar" unicode="&#x167;" horiz-adv-x="172" 
d="M116 620v-80h52v-69h-52v-358q0 -15 2 -24t8 -13.5t16 -5.5t26 -1v-69q-39 0 -65 3.5t-41 14.5t-21 31.5t-6 55.5v366h-30v69h30v80h81zM162 262h-158v57h158v-57z" />
    <glyph glyph-name="Utilde" unicode="&#x168;" horiz-adv-x="306" 
d="M283 128q0 -73 -34.5 -108t-94.5 -35q-61 0 -96 35t-35 108v572h85v-583q0 -63 45 -63q23 0 34 15t11 48v583h85v-572zM243 847q0 -107 -47 -107q-26 0 -49 41l-4 6q-16 29 -30 29q-19 0 -19 -47v-26h-30v25q0 54 12 82t36 28q14 0 24.5 -9.5t21.5 -28.5l3 -6
q19 -31 34 -31q19 0 19 44v28h29v-28z" />
    <glyph glyph-name="utilde" unicode="&#x169;" horiz-adv-x="284" 
d="M104 540v-423q0 -33 8.5 -48t25.5 -15q19 0 30.5 19t11.5 59v408h81v-540h-66l-8 58h-3q-23 -73 -81 -73q-38 0 -59 36t-21 107v412h81zM232 687q0 -107 -47 -107q-26 0 -49 41l-4 6q-16 29 -30 29q-19 0 -19 -47v-26h-30v25q0 54 12 82t36 28q14 0 24.5 -9.5t21.5 -28.5
l3 -6q19 -31 34 -31q19 0 19 44v28h29v-28z" />
    <glyph glyph-name="Umacron" unicode="&#x16a;" horiz-adv-x="306" 
d="M283 128q0 -73 -34.5 -108t-94.5 -35q-61 0 -96 35t-35 108v572h85v-583q0 -63 45 -63q23 0 34 15t11 48v583h85v-572zM243 779h-180v59h180v-59z" />
    <glyph glyph-name="umacron" unicode="&#x16b;" horiz-adv-x="284" 
d="M104 540v-423q0 -33 8.5 -48t25.5 -15q19 0 30.5 19t11.5 59v408h81v-540h-66l-8 58h-3q-23 -73 -81 -73q-38 0 -59 36t-21 107v412h81zM232 619h-180v59h180v-59z" />
    <glyph glyph-name="Ubreve" unicode="&#x16c;" horiz-adv-x="306" 
d="M283 128q0 -73 -34.5 -108t-94.5 -35q-61 0 -96 35t-35 108v572h85v-583q0 -63 45 -63q23 0 34 15t11 48v583h85v-572zM111 877q0 -32 9 -55t34 -23t33.5 23t8.5 55h50q0 -68 -21.5 -102.5t-70.5 -34.5q-50 0 -71.5 34.5t-21.5 102.5h50z" />
    <glyph glyph-name="ubreve" unicode="&#x16d;" horiz-adv-x="284" 
d="M104 540v-423q0 -33 8.5 -48t25.5 -15q19 0 30.5 19t11.5 59v408h81v-540h-66l-8 58h-3q-23 -73 -81 -73q-38 0 -59 36t-21 107v412h81zM100 717q0 -32 9 -55t34 -23t33.5 23t8.5 55h50q0 -68 -21.5 -102.5t-70.5 -34.5q-50 0 -71.5 34.5t-21.5 102.5h50z" />
    <glyph glyph-name="Uring" unicode="&#x16e;" horiz-adv-x="306" 
d="M283 128q0 -73 -34.5 -108t-94.5 -35q-61 0 -96 35t-35 108v572h85v-583q0 -63 45 -63q23 0 34 15t11 48v583h85v-572zM87 809q0 33 17.5 50.5t48.5 17.5q32 0 49.5 -17.5t17.5 -50.5t-17 -51t-49 -18t-49.5 18t-17.5 51zM121 809q0 -37 33 -37q32 0 32 37q0 36 -32 36
q-15 0 -24 -9.5t-9 -26.5z" />
    <glyph glyph-name="uring" unicode="&#x16f;" horiz-adv-x="284" 
d="M104 540v-423q0 -33 8.5 -48t25.5 -15q19 0 30.5 19t11.5 59v408h81v-540h-66l-8 58h-3q-23 -73 -81 -73q-38 0 -59 36t-21 107v412h81zM76 649q0 33 17.5 50.5t48.5 17.5q32 0 49.5 -17.5t17.5 -50.5t-17 -51t-49 -18t-49.5 18t-17.5 51zM110 649q0 -37 33 -37
q32 0 32 37q0 36 -32 36q-15 0 -24 -9.5t-9 -26.5z" />
    <glyph glyph-name="Uhungarumlaut" unicode="&#x170;" horiz-adv-x="306" 
d="M283 128q0 -73 -34.5 -108t-94.5 -35q-61 0 -96 35t-35 108v572h85v-583q0 -63 45 -63q23 0 34 15t11 48v583h85v-572zM80 740l31 137h55l-40 -137h-46zM170 740l31 137h55l-40 -137h-46z" />
    <glyph glyph-name="uhungarumlaut" unicode="&#x171;" horiz-adv-x="284" 
d="M104 540v-423q0 -33 8.5 -48t25.5 -15q19 0 30.5 19t11.5 59v408h81v-540h-66l-8 58h-3q-23 -73 -81 -73q-38 0 -59 36t-21 107v412h81zM69 580l31 137h55l-40 -137h-46zM159 580l31 137h55l-40 -137h-46z" />
    <glyph glyph-name="Uogonek" unicode="&#x172;" horiz-adv-x="306" 
d="M283 128q0 -73 -34.5 -108t-94.5 -35q-61 0 -96 35t-35 108v572h85v-583q0 -63 45 -63q23 0 34 15t11 48v583h85v-572zM203 -4q-21 -8 -33 -25t-12 -36t12 -31.5t34 -12.5q8 0 16.5 2t18.5 5v-52q-31 -9 -58 -9q-43 0 -66 20.5t-23 51.5q0 33 27.5 60t81.5 35z" />
    <glyph glyph-name="uogonek" unicode="&#x173;" horiz-adv-x="284" 
d="M104 540v-423q0 -33 8.5 -48t25.5 -15q19 0 30.5 19t11.5 59v408h81v-540h-66l-8 58h-3q-23 -73 -81 -73q-38 0 -59 36t-21 107v412h81zM260 -1q-34 -2 -54 -21t-20 -44q0 -19 12 -31.5t34 -12.5q8 0 16.5 2t18.5 5v-52q-31 -9 -58 -9q-43 0 -66 20.5t-23 51.5
q0 19 9 36.5t27 31t44 22t60 9.5v-8z" />
    <glyph glyph-name="Wcircumflex" unicode="&#x174;" horiz-adv-x="452" 
d="M376 0h-110l-34 497l-4 72h-4l-3 -72l-35 -497h-110l-66 700h85l32 -519l2 -72h4l3 72l39 519h102l40 -519l4 -72h4l2 72l30 519h85zM152 740l42 137h65l42 -137h-50l-23 97h-3l-23 -97h-50z" />
    <glyph glyph-name="wcircumflex" unicode="&#x175;" horiz-adv-x="438" 
d="M366 0h-110l-31 426l-4 68h-4l-4 -68l-32 -426h-110l-63 540h85l29 -369l2 -62h4l4 62l36 369h102l38 -369l3 -62h4l2 62l28 369h85zM145 580l42 137h65l42 -137h-50l-23 97h-3l-23 -97h-50z" />
    <glyph glyph-name="Ycircumflex" unicode="&#x176;" horiz-adv-x="280" 
d="M183 235v-235h-85v235l-87 465h85l35 -300l8 -78h4l8 78l35 300h85zM66 740l42 137h65l42 -137h-50l-23 97h-3l-23 -97h-50z" />
    <glyph glyph-name="ycircumflex" unicode="&#x177;" horiz-adv-x="271" 
d="M180 -40q-5 -35 -12 -59t-24 -38t-46.5 -20t-79.5 -6v69q24 0 38 3t20.5 12.5t8.5 27t2 46.5l-79 545h85l37 -358l4 -63h4l4 63l36 358h85zM61 580l42 137h65l42 -137h-50l-23 97h-3l-23 -97h-50z" />
    <glyph glyph-name="Ydieresis" unicode="&#x178;" horiz-adv-x="280" 
d="M183 235v-235h-85v235l-87 465h85l35 -300l8 -78h4l8 78l35 300h85zM43 851h77v-84h-77v84zM160 851h77v-84h-77v84z" />
    <glyph glyph-name="Zacute" unicode="&#x179;" horiz-adv-x="246" 
d="M226 631l-128 -559l2 -3h133v-69h-220v69l127 559l-2 3h-118v69h206v-69zM96 740l34 137h65l-45 -137h-54z" />
    <glyph glyph-name="zacute" unicode="&#x17a;" horiz-adv-x="236" 
d="M216 487l-117 -415l2 -3h122v-69h-210v54l116 415l-2 2h-106v69h195v-53zM91 580l34 137h65l-45 -137h-54z" />
    <glyph glyph-name="Zdotaccent" unicode="&#x17b;" horiz-adv-x="246" 
d="M226 631l-128 -559l2 -3h133v-69h-220v69l127 559l-2 3h-118v69h206v-69zM84 851h77v-84h-77v84z" />
    <glyph glyph-name="zdotaccent" unicode="&#x17c;" horiz-adv-x="236" 
d="M216 487l-117 -415l2 -3h122v-69h-210v54l116 415l-2 2h-106v69h195v-53zM79 691h77v-84h-77v84z" />
    <glyph glyph-name="Zcaron" unicode="&#x17d;" horiz-adv-x="246" 
d="M226 631l-128 -559l2 -3h133v-69h-220v69l127 559l-2 3h-118v69h206v-69zM197 877l-42 -137h-65l-42 137h50l23 -97h3l23 97h50z" />
    <glyph glyph-name="zcaron" unicode="&#x17e;" horiz-adv-x="236" 
d="M216 487l-117 -415l2 -3h122v-69h-210v54l116 415l-2 2h-106v69h195v-53zM192 717l-42 -137h-65l-42 137h50l23 -97h3l23 97h50z" />
    <glyph glyph-name="longs" unicode="&#x17f;" horiz-adv-x="534" 
d="M30 700h474v-700h-474v700zM292 350l162 -267v534zM242 350l-162 267v-534zM110 650l157 -259l157 259h-314zM267 309l-157 -259h314z" />
    <glyph glyph-name="florin" unicode="&#x192;" horiz-adv-x="185" 
d="M22 540h30v106q0 35 6 55.5t20.5 31t39.5 14t62 3.5v-69q-14 0 -23 -1t-14.5 -5.5t-7.5 -13.5t-2 -24v-97h38v-69h-38v-577q0 -35 -6 -55.5t-20.5 -31t-39 -14t-62.5 -3.5v69q14 0 23.5 1t14.5 5.5t7 13.5t2 24v568h-30v69z" />
    <glyph glyph-name="uni0237" unicode="&#x237;" horiz-adv-x="128" 
d="M105 -60q0 -35 -4.5 -55.5t-18 -31t-38.5 -14t-65 -3.5v69q16 0 25.5 1t13.5 5.5t5 13.5t1 24v591h81v-600z" />
    <glyph glyph-name="circumflex" unicode="&#x2c6;" horiz-adv-x="209" 
d="M30 563l42 137h65l42 -137h-50l-23 97h-3l-23 -97h-50z" />
    <glyph glyph-name="caron" unicode="&#x2c7;" horiz-adv-x="209" 
d="M179 700l-42 -137h-65l-42 137h50l23 -97h3l23 97h50z" />
    <glyph glyph-name="breve" unicode="&#x2d8;" horiz-adv-x="245" 
d="M80 700q0 -32 9 -55t34 -23t33.5 23t8.5 55h50q0 -68 -21.5 -102.5t-70.5 -34.5q-50 0 -71.5 34.5t-21.5 102.5h50z" />
    <glyph glyph-name="dotaccent" unicode="&#x2d9;" horiz-adv-x="137" 
d="M30 674h77v-84h-77v84z" />
    <glyph glyph-name="ring" unicode="&#x2da;" horiz-adv-x="193" 
d="M30 632q0 33 17.5 50.5t48.5 17.5q32 0 49.5 -17.5t17.5 -50.5t-17 -51t-49 -18t-49.5 18t-17.5 51zM64 632q0 -37 33 -37q32 0 32 37q0 36 -32 36q-15 0 -24 -9.5t-9 -26.5z" />
    <glyph glyph-name="ogonek" unicode="&#x2db;" horiz-adv-x="207" 
d="M170 -11q-34 -2 -54 -21t-20 -44q0 -19 12 -31.5t34 -12.5q8 0 16.5 2t18.5 5v-52q-31 -9 -58 -9q-43 0 -66 20.5t-23 51.5q0 19 9 36.5t27 31t44 22t60 9.5v-8z" />
    <glyph glyph-name="tilde" unicode="&#x2dc;" horiz-adv-x="239" 
d="M209 670q0 -107 -47 -107q-26 0 -49 41l-4 6q-16 29 -30 29q-19 0 -19 -47v-26h-30v25q0 54 12 82t36 28q14 0 24.5 -9.5t21.5 -28.5l3 -6q19 -31 34 -31q19 0 19 44v28h29v-28z" />
    <glyph glyph-name="hungarumlaut" unicode="&#x2dd;" horiz-adv-x="236" 
d="M30 563l31 137h55l-40 -137h-46zM120 563l31 137h55l-40 -137h-46z" />
    <glyph glyph-name="uni03BC" unicode="&#x3bc;" horiz-adv-x="534" 
d="M30 700h474v-700h-474v700zM292 350l162 -267v534zM242 350l-162 267v-534zM110 650l157 -259l157 259h-314zM267 309l-157 -259h314z" />
    <glyph glyph-name="endash" unicode="&#x2013;" horiz-adv-x="480" 
d="M450 305h-420v69h420v-69z" />
    <glyph glyph-name="emdash" unicode="&#x2014;" horiz-adv-x="720" 
d="M690 305h-660v69h660v-69z" />
    <glyph glyph-name="quoteleft" unicode="&#x2018;" horiz-adv-x="156" 
d="M30 609q0 46 24.5 68.5t71.5 22.5v-44q-44 0 -44 -48v-17h44v-98h-96v116z" />
    <glyph glyph-name="quoteright" unicode="&#x2019;" horiz-adv-x="156" 
d="M126.002 584.037q0 -45.9971 -24.499 -68.4961q-24.498 -22.498 -71.4951 -22.498v43.9971q43.9971 0 43.9971 47.9971v16.999h-43.9971v97.9941h95.9941v-115.993z" />
    <glyph glyph-name="quotesinglbase" unicode="&#x201a;" horiz-adv-x="148" 
d="M118 -17q0 -86 -89 -86v41q41 0 41 46v17h-40v91h88v-109z" />
    <glyph glyph-name="quotedblleft" unicode="&#x201c;" horiz-adv-x="276" 
d="M30 601q0 46 24.5 68.5t71.5 22.5v-44q-44 0 -44 -48v-17h44v-98h-96v116zM150 601q0 46 24.5 68.5t71.5 22.5v-44q-44 0 -44 -48v-17h44v-98h-96v116z" />
    <glyph glyph-name="quotedblright" unicode="&#x201d;" horiz-adv-x="276" 
d="M126 577q0 -92 -96 -92v44q44 0 44 49v17h-44v98h96v-116zM246 577q0 -92 -96 -92v44q44 0 44 49v17h-44v98h96v-116z" />
    <glyph glyph-name="quotedblbase" unicode="&#x201e;" horiz-adv-x="261" 
d="M118 -17q0 -86 -89 -86v41q41 0 41 46v17h-40v91h88v-109zM231 -17q0 -86 -89 -86v41q41 0 41 46v17h-40v91h88v-109z" />
    <glyph glyph-name="dagger" unicode="&#x2020;" horiz-adv-x="275" 
d="M180 700v-160h65v-69h-65v-471h-85v471h-65v69h65v160h85z" />
    <glyph glyph-name="daggerdbl" unicode="&#x2021;" horiz-adv-x="275" 
d="M180 700v-160h65v-69h-65v-242h65v-69h-65v-160h-85v160h-65v69h65v242h-65v69h65v160h85z" />
    <glyph glyph-name="bullet" unicode="&#x2022;" horiz-adv-x="216" 
d="M30 368q0 37 20.5 57.5t57.5 20.5t57.5 -20.5t20.5 -57.5t-20.5 -58t-57.5 -21t-57.5 21t-20.5 58z" />
    <glyph glyph-name="ellipsis" unicode="&#x2026;" horiz-adv-x="465" 
d="M30 98h95v-98h-95v98zM185 98h95v-98h-95v98zM340 98h95v-98h-95v98z" />
    <glyph glyph-name="perthousand" unicode="&#x2030;" horiz-adv-x="836" 
d="M482 271q0 33 -8.5 47.5t-28.5 14.5q-39 0 -39 -62v-153q0 -33 9 -48t29 -15t29 14.5t9 48.5v153zM735 271q0 33 -8.5 47.5t-28.5 14.5q-39 0 -39 -62v-153q0 -33 9 -48t29 -15t29 14.5t9 48.5v153zM177 584q0 33 -8.5 47.5t-28.5 14.5t-29.5 -14.5t-9.5 -47.5v-152
q0 -33 9 -48t29 -15t29 14.5t9 48.5v152zM418 700h51l-300 -700h-51zM553 129q0 -72 -27.5 -108t-80.5 -36q-54 0 -82 36t-28 108v131q0 71 28 106.5t82 35.5q53 0 80.5 -35.5t27.5 -106.5v-131zM806 129q0 -72 -27.5 -108t-80.5 -36q-54 0 -82 36t-28 108v131
q0 71 28 106.5t82 35.5q53 0 80.5 -35.5t27.5 -106.5v-131zM248 443q0 -72 -27.5 -107.5t-80.5 -35.5q-54 0 -82 35.5t-28 107.5v130q0 72 28 107t82 35q53 0 80.5 -35t27.5 -107v-130z" />
    <glyph glyph-name="guilsinglleft" unicode="&#x2039;" horiz-adv-x="274" 
d="M30 236v57l213 115v-78l-125 -64v-3l125 -63v-78z" />
    <glyph glyph-name="guilsinglright" unicode="&#x203a;" horiz-adv-x="274" 
d="M243.002 294.015v-56.9971l-212.987 -114.992v77.9951l124.992 63.9961v2.99902l-124.992 62.9961v77.9961z" />
    <glyph glyph-name="fraction" unicode="&#x2044;" horiz-adv-x="284" 
d="M30 0l168 700h56l-168 -700h-56z" />
    <glyph glyph-name="uni2074" unicode="&#x2074;" horiz-adv-x="213" 
d="M170 315h-52v61h-88v37l71 287h69v-281h14v-43h-14v-61zM118 419v92l9 114l-3 1l-6 -41l-36 -166h36z" />
    <glyph glyph-name="Euro" unicode="&#x20ac;" horiz-adv-x="326" 
d="M233 371h-95v-41h83l-10 -54h-73v-159q0 -63 40 -63q21 0 30.5 15t9.5 48v97h85v-86q0 -73 -33 -108t-91 -35t-92 35t-34 108v148h-30v54h30v41h-30v54h30v148q0 73 33.5 107.5t91.5 34.5q59 0 92 -34.5t33 -107.5v-86h-85v97q0 62 -40 62t-40 -62v-159h105z" />
    <glyph glyph-name="trademark" unicode="&#x2122;" horiz-adv-x="396" 
d="M152 666h-40v-281h-42v281h-40v34h122v-34zM367 385h-37l4 227l2 32h-3l-3 -32l-35 -227h-45l-36 227l-4 32h-3l2 -32l3 -227h-37v315h63l30 -199l3 -60h2l3 60l29 199h62v-315z" />
    <glyph glyph-name="minus" unicode="&#x2212;" horiz-adv-x="346" 
d="M316 305h-286v69h286v-69z" />
    <glyph glyph-name="commaccent" horiz-adv-x="134" 
d="M46 -10h58l-38 -177h-35z" />
    <glyph glyph-name="commaccent2" horiz-adv-x="123" 
d="M92 -15q0 -60 -61 -60v28q28 0 28 33v14h-28v64h61v-79z" />
    <glyph glyph-name="commaccent3" horiz-adv-x="123" 
d="M31 4q0 60 61 60v-28q-28 0 -28 -33v-14h28v-64h-61v79z" />
    <glyph glyph-name="crossbar" horiz-adv-x="260" 
d="M229 351l-177 -75l-21 53l177 75z" />
    <glyph glyph-name="custombarH" horiz-adv-x="348" 
d="M318 311h-288v57h288v-57z" />
    <glyph glyph-name="dotaccent2" horiz-adv-x="137" 
d="M30 674h77v-84h-77v84z" />
    <glyph glyph-name="ethbar" horiz-adv-x="210" 
d="M180 311h-150v57h150v-57z" />
    <glyph glyph-name="ogonek2" horiz-adv-x="500" 
d="M288 -14q-21 -8 -33 -25t-12 -36t12 -31.5t34 -12.5q8 0 16.5 2t18.5 5v-52q-31 -9 -58 -9q-43 0 -66 20.5t-23 51.5q0 33 27.5 60t81.5 35z" />
    <glyph glyph-name="tbarnew" horiz-adv-x="218" 
d="M188 311h-158v57h158v-57z" />
    <glyph glyph-name="ethbar.case" horiz-adv-x="210" 
d="M160 311h-175v57h175v-57z" />
    <glyph glyph-name="crossbar.case" horiz-adv-x="229" 
d="M199 344l-146 -63l-22 53l147 63z" />
    </font>
</defs>
</svg>
